The Rolling Stones – 2009 Remasters




Artist: The Rolling Stones
Year: 2009
Genre: Rock
Notes: Discogs
Add. Notes:
Cover incl.: Yes
Encoder: FLAC
Bitrate: ~900 kBit/s (44.1 kHz/16 Bit/s)
Log & Cue incl.: Yes
Size: 423,56 MB
Password: “slam” (without ” “)


All Downloads/Hosters are compatible

Download 1
Turbobit.net
KatFile.com
Rapidgator.net
Download 2
Turbobit.net
KatFile.com
Rapidgator.net

Tracklist:

1. Moonlight Mile (5:58)
2. Dancing With Mr.D. (4:52)
3. Time Waits For No One (6:37)
4. Hot Stuff (5:20)
5. Beast Of Burden (4:24)
6. Let Me Go (3:26)
7. Hang Fire (2:21)
8. She Was Hot (4:41)
9. Winning Ugly (4:32)
10. Break The Spell (3:07)
11. Thru And Thru (6:01)
12. Saint Of Me (5:15)
13. Rain Fall Down (4:56)

EAC-Log, CUE-Sheed & NFO:

Click to open spoiler
Exact Audio Copy V1.0 beta 3 from 29. August 2011

EAC extraction logfile from 5. April 2013, 16:56

The Rolling Stones / 2009 Remasters Promo

Used drive : HL-DT-STDVD+-RW GH50N Adapter: 0 ID: 1

Read mode : Secure
Utilize accurate stream : Yes
Defeat audio cache : Yes
Make use of C2 pointers : No

Read offset correction : 667
Overread into Lead-In and Lead-Out : No
Fill up missing offset samples with silence : Yes
Delete leading and trailing silent blocks : No
Null samples used in CRC calculations : Yes
Used interface : Native Win32 interface for Win NT & 2000

Used output format : User Defined Encoder
Selected bitrate : 768 kBit/s
Quality : High
Add ID3 tag : No
Command line compressor : C:\Program Files (x86)\Exact Audio Copy\FLAC\FLAC.EXE
Additional command line options : -V -8 -T “Date=%year%” -T “Genre=%genre%” %source%

TOC of the extracted CD

Track | Start | Length | Start sector | End sector
———————————————————
1 | 0:00.00 | 5:58.27 | 0 | 26876
2 | 5:58.27 | 4:52.50 | 26877 | 48826
3 | 10:51.02 | 6:38.10 | 48827 | 78686
4 | 17:29.12 | 5:21.04 | 78687 | 102765
5 | 22:50.16 | 4:24.65 | 102766 | 122630
6 | 27:15.06 | 3:52.00 | 122631 | 140030
7 | 31:07.06 | 2:21.26 | 140031 | 150631
8 | 33:28.32 | 4:41.31 | 150632 | 171737
9 | 38:09.63 | 4:31.64 | 171738 | 192126
10 | 42:41.52 | 3:06.63 | 192127 | 206139
11 | 45:48.40 | 6:00.57 | 206140 | 233196
12 | 51:49.22 | 5:15.08 | 233197 | 256829
13 | 57:04.30 | 4:55.72 | 256830 | 279026

Range status and errors

Selected range

Filename C:\222\RUTRA1\2009 Remasters\The Rolling Stones – 2009 Remasters Promo.wav

Peak level 98.9 %
Extraction speed 3.3 X
Range quality 100.0 %
Test CRC A82F4D7E
Copy CRC A82F4D7E
Copy OK

No errors occurred

AccurateRip summary

Track 1 accurately ripped (confidence 1) [9597E9A3] (AR v1)
Track 2 accurately ripped (confidence 1) [58DB71BD] (AR v1)
Track 3 accurately ripped (confidence 1) [CF9CA591] (AR v1)
Track 4 accurately ripped (confidence 1) [EC0D8109] (AR v1)
Track 5 accurately ripped (confidence 1) [7C4B7447] (AR v1)
Track 6 accurately ripped (confidence 1) [625C7505] (AR v1)
Track 7 accurately ripped (confidence 1) [E6BDA17B] (AR v1)
Track 8 accurately ripped (confidence 1) [082052DC] (AR v1)
Track 9 accurately ripped (confidence 1) [FA55F495] (AR v1)
Track 10 accurately ripped (confidence 1) [41274990] (AR v1)
Track 11 accurately ripped (confidence 1) [42DDC7F2] (AR v1)
Track 12 accurately ripped (confidence 1) [C93FE476] (AR v1)
Track 13 accurately ripped (confidence 1) [ED0C9D59] (AR v1)

All tracks accurately ripped

End of status report

==== Log checksum C8115500AFDB975E2B24A504532D1E44ED51CC05085B86613E196E8A967C608F ====

REM GENRE Rock
REM DATE 2009
REM DISCID 9A0E880D
REM COMMENT “ExactAudioCopy v1.0b3”
CATALOG 0602527016436
PERFORMER “The Rolling Stones”
TITLE “2009 Remasters Promo”
FILE “The Rolling Stones – 2009 Remasters Promo.flac” WAVE
TRACK 01 AUDIO
TITLE “Moonlight Mile”
PERFORMER “The Rolling Stones”
ISRC GBCJN7100011
INDEX 01 00:00:00
TRACK 02 AUDIO
TITLE “Dancing With Mr.D.”
PERFORMER “The Rolling Stones”
ISRC GBCJN7300001
INDEX 00 05:58:08
INDEX 01 05:58:27
TRACK 03 AUDIO
TITLE “Time Waits For No One”
PERFORMER “The Rolling Stones”
ISRC GBCJN7400005
INDEX 00 10:50:58
INDEX 01 10:51:02
TRACK 04 AUDIO
TITLE “Hot Stuff”
PERFORMER “The Rolling Stones”
ISRC GBCJN7600001
INDEX 00 17:28:68
INDEX 01 17:29:12
TRACK 05 AUDIO
TITLE “Beast Of Burden”
PERFORMER “The Rolling Stones”
ISRC GBCJN7800009
INDEX 00 22:49:72
INDEX 01 22:50:16
TRACK 06 AUDIO
TITLE “Let Me Go”
PERFORMER “The Rolling Stones”
ISRC GBCJN8000004
INDEX 00 27:14:62
INDEX 01 27:15:06
TRACK 07 AUDIO
TITLE “Hang Fire”
PERFORMER “The Rolling Stones”
ISRC GBAJN8100002
INDEX 00 30:41:42
INDEX 01 31:07:06
TRACK 08 AUDIO
TITLE “She Was Hot”
PERFORMER “The Rolling Stones”
ISRC GBCJN8300002
INDEX 00 33:28:13
INDEX 01 33:28:32
TRACK 09 AUDIO
TITLE “Winning Ugly”
PERFORMER “The Rolling Stones”
ISRC GBCJN8600006
INDEX 00 38:09:44
INDEX 01 38:09:63
TRACK 10 AUDIO
TITLE “Break The Spell”
PERFORMER “The Rolling Stones”
ISRC GBCJN8900011
INDEX 00 42:41:33
INDEX 01 42:41:52
TRACK 11 AUDIO
TITLE “Thru And Thru”
PERFORMER “The Rolling Stones”
ISRC GBCJN9400014
INDEX 00 45:48:21
INDEX 01 45:48:40
TRACK 12 AUDIO
TITLE “Saint Of Me”
PERFORMER “The Rolling Stones”
ISRC GBCJN9700008
INDEX 00 51:49:03
INDEX 01 51:49:22
TRACK 13 AUDIO
TITLE “Rain Fall Down”
PERFORMER “The Rolling Stones”
ISRC GBCJN0500051
INDEX 00 57:04:11
INDEX 01 57:04:30


Leave a Reply

Your email address will not be published. Required fields are marked *

This site uses Akismet to reduce spam. Learn how your comment data is processed.