The Rolling Stones – 12×5 (Limited Remastered Japanese Edition)




Artist: The Rolling Stones
Year: 1964/2006
Genre: Rock
Notes: Discogs
Add. Notes: Limited Remastered Japanese Edition
Cover incl.: Yes
Encoder: FLAC
Bitrate: ~900 kBit/s (44.1 kHz/16 Bit/s)
Log & Cue incl.: Yes/Yes
Password: “slam” (without ” “)


All Downloads/Hosters are compatible

Download 1
KatFile.com
Turbobit.net
FileFactory.com
Rapidgator.net
Download 2
KatFile.com
Turbobit.net
FileFactory.com
Rapidgator.net

Tracklist:

1 Around And Around 3:00
2 Confessin' The Blues 2:45
3 Empty Heart 2:35
4 Time Is On My Side 2:50
5 Good Times, Bad Times 2:28
6 It's All Over Now 3:20
7 2120 South Michigan Avenue 2:08
8 Under The Boardwalk 2:45
9 Congradulations 2:25
10 Grown Up Wrong 2:04
11 If You Need Me 2:00
12 Susie Q 1:59

EAC-Log, CUE-Sheed & NFO:

Click to open spoiler
Exact Audio Copy V1.0 beta 3 from 29. August 2011

EAC extraction logfile from 14. January 2014, 22:28

The Rolling Stones / 12 X 5 (UICY-93014)

Used drive : PLEXTOR DVDR PX-891SA Adapter: 3 ID: 0

Read mode : Secure
Utilize accurate stream : Yes
Defeat audio cache : Yes
Make use of C2 pointers : No

Read offset correction : 6
Overread into Lead-In and Lead-Out : No
Fill up missing offset samples with silence : Yes
Delete leading and trailing silent blocks : No
Null samples used in CRC calculations : Yes
Used interface : Native Win32 interface for Win NT & 2000

Used output format : User Defined Encoder
Selected bitrate : 1024 kBit/s
Quality : High
Add ID3 tag : No
Command line compressor : C:\Program Files\Exact Audio Copy\Flac\flac.exe
Additional command line options : -V -8 -T “Genre=%genre%” -T “Artist=%artist%” -T “Title=%title%” -T “Album=%albumtitle%” -T “Date=%year%” -T “Tracknumber=%tracknr%” -T “Comment=%comment%” %source%

TOC of the extracted CD

Track | Start | Length | Start sector | End sector
———————————————————
1 | 0:00.00 | 3:04.02 | 0 | 13801
2 | 3:04.02 | 2:48.50 | 13802 | 26451
3 | 5:52.52 | 2:38.58 | 26452 | 38359
4 | 8:31.35 | 2:54.35 | 38360 | 51444
5 | 11:25.70 | 2:31.55 | 51445 | 62824
6 | 13:57.50 | 3:27.37 | 62825 | 78386
7 | 17:25.12 | 3:39.60 | 78387 | 94871
8 | 21:04.72 | 2:47.35 | 94872 | 107431
9 | 23:52.32 | 2:29.48 | 107432 | 118654
10 | 26:22.05 | 2:06.27 | 118655 | 128131
11 | 28:28.32 | 2:05.28 | 128132 | 137534
12 | 30:33.60 | 1:50.72 | 137535 | 145856

Range status and errors

Selected range

Filename H:\dafnaplus\1964 Rolling Stones – 12 X 5 [UICY-93014]\The Rolling Stones – 12 X 5 (UICY-93014).wav

Peak level 99.8 %
Extraction speed 5.2 X
Range quality 100.0 %
Test CRC BF2103C6
Copy CRC BF2103C6
Copy OK

No errors occurred

AccurateRip summary

Track 1 accurately ripped (confidence 6) [CE013E64] (AR v2)
Track 2 accurately ripped (confidence 6) [7B76EC8A] (AR v2)
Track 3 accurately ripped (confidence 6) [AFD32F34] (AR v2)
Track 4 accurately ripped (confidence 6) [B7E74B5A] (AR v2)
Track 5 accurately ripped (confidence 6) [BA11F263] (AR v2)
Track 6 accurately ripped (confidence 6) [B9B5AE67] (AR v2)
Track 7 accurately ripped (confidence 6) [69F7B0F3] (AR v2)
Track 8 accurately ripped (confidence 6) [5C11AC02] (AR v2)
Track 9 accurately ripped (confidence 6) [999E563A] (AR v2)
Track 10 accurately ripped (confidence 6) [D89469E9] (AR v2)
Track 11 accurately ripped (confidence 6) [F32D6072] (AR v2)
Track 12 accurately ripped (confidence 6) [B1849CA9] (AR v2)

All tracks accurately ripped

End of status report

==== Log checksum 38513CD4C6750C21FFC24B83608E9551B4E8C9EA794BFDA71A30B4B83A8B7127 ====

REM DATE 2006
REM DISCID A207980C
REM COMMENT “ExactAudioCopy v1.0b3”
CATALOG 0042288231721
PERFORMER “The Rolling Stones”
TITLE “12 X 5 (UICY-93014)”
FILE “The Rolling Stones – 12 X 5 (UICY-93014).flac” WAVE
TRACK 01 AUDIO
TITLE “Around And Around”
PERFORMER “The Rolling Stones”
ISRC USA176410130
INDEX 01 00:00:00
TRACK 02 AUDIO
TITLE “Confessin’ The Blues”
PERFORMER “The Rolling Stones”
ISRC USA176410140
INDEX 00 03:03:15
INDEX 01 03:04:02
TRACK 03 AUDIO
TITLE “Empty Heart”
PERFORMER “The Rolling Stones”
ISRC USA176410150
INDEX 00 05:51:22
INDEX 01 05:52:52
TRACK 04 AUDIO
TITLE “Time Is On My Side”
PERFORMER “The Rolling Stones”
ISRC USA176410160
INDEX 00 08:29:50
INDEX 01 08:31:35
TRACK 05 AUDIO
TITLE “Good Times, Bad Times”
PERFORMER “The Rolling Stones”
ISRC USA176410170
INDEX 00 11:24:15
INDEX 01 11:25:70
TRACK 06 AUDIO
TITLE “It’s All Over Now”
PERFORMER “The Rolling Stones”
ISRC USA176410180
INDEX 00 13:56:10
INDEX 01 13:57:50
TRACK 07 AUDIO
TITLE “2120 South Michigan Avenue”
PERFORMER “The Rolling Stones”
ISRC USA176410190
INDEX 00 17:24:10
INDEX 01 17:25:12
TRACK 08 AUDIO
TITLE “Under The Boardwalk”
PERFORMER “The Rolling Stones”
ISRC USA176410200
INDEX 00 21:03:50
INDEX 01 21:04:72
TRACK 09 AUDIO
TITLE “Congratulations”
PERFORMER “The Rolling Stones”
ISRC USA176410210
INDEX 00 23:51:41
INDEX 01 23:52:32
TRACK 10 AUDIO
TITLE “Grown Up Wrong”
PERFORMER “The Rolling Stones”
ISRC USA176410220
INDEX 00 26:21:21
INDEX 01 26:22:05
TRACK 11 AUDIO
TITLE “If You Need Me”
PERFORMER “The Rolling Stones”
ISRC USA176410230
INDEX 00 28:27:50
INDEX 01 28:28:32
TRACK 12 AUDIO
TITLE “Susie Q”
PERFORMER “The Rolling Stones”
ISRC USA176410240
INDEX 00 30:32:51
INDEX 01 30:33:60


Leave a Reply

Your email address will not be published. Required fields are marked *

Enter the text from the image below
 

This site uses Akismet to reduce spam. Learn how your comment data is processed.