The Rolling Stones – 12 x 5 (Remastered)




Artist: The Rolling Stones
Year: 1964/2002
Genre: Rock
Notes: Discogs
Add. Notes: Remastered
Cover incl.: Yes
Encoder: FLAC
Bitrate: ~900 kBit/s (44.1 kHz/16 Bit/s)
Log & Cue incl.: Yes
Size: 215,94 MB
Password: “slam” (without ” “)


All Downloads/Hosters are compatible

Download 1
Turbobit.net
KatFile.com
Rapidgator.net
Usersdrive.com
Download 2
Turbobit.net
KatFile.com
Rapidgator.net
Usersdrive.com

Tracklist:

1 - Around And Around - 3:04
2 - Confessin' The Blues - 2:48
3 - Empty Heart - 2:38
4 - Time Is On My Side - 2:54
5 - Good Times, Bad Times - 2:31
6 - It's All Over Now - 3:27
7 - 2120 South Michigan Avenue - 3:39
8 - Under The Boardwalk - 2:47
9 - Congradulations - 2:29
10 - Grown Up Wrong - 2:06
11 - If You Need Me - 2:05
12 - Susie Q - 1:50

EAC-Log, CUE-Sheed & NFO:

Click to open spoiler
Exact Audio Copy V1.0 beta 3 from 29. August 2011

EAC extraction logfile from 12. March 2013, 10:14

The Rolling Stones / 12 X 5 (SACD-hybrid)

Used drive : HL-DT-STDVD+-RW GH50N Adapter: 0 ID: 1

Read mode : Secure
Utilize accurate stream : Yes
Defeat audio cache : Yes
Make use of C2 pointers : No

Read offset correction : 667
Overread into Lead-In and Lead-Out : No
Fill up missing offset samples with silence : Yes
Delete leading and trailing silent blocks : No
Null samples used in CRC calculations : Yes
Used interface : Native Win32 interface for Win NT & 2000

Used output format : User Defined Encoder
Selected bitrate : 768 kBit/s
Quality : High
Add ID3 tag : No
Command line compressor : C:\Program Files (x86)\Exact Audio Copy\FLAC\FLAC.EXE
Additional command line options : -V -8 -T “Date=%year%” -T “Genre=%genre%” %source%

TOC of the extracted CD

Track | Start | Length | Start sector | End sector
———————————————————
1 | 0:00.00 | 3:03.62 | 0 | 13786
2 | 3:03.62 | 2:48.63 | 13787 | 26449
3 | 5:52.50 | 2:38.57 | 26450 | 38356
4 | 8:31.32 | 2:54.35 | 38357 | 51441
5 | 11:25.67 | 2:31.55 | 51442 | 62821
6 | 13:57.47 | 3:27.38 | 62822 | 78384
7 | 17:25.10 | 3:39.60 | 78385 | 94869
8 | 21:04.70 | 2:47.22 | 94870 | 107416
9 | 23:52.17 | 2:29.50 | 107417 | 118641
10 | 26:21.67 | 2:06.33 | 118642 | 128124
11 | 28:28.25 | 2:05.25 | 128125 | 137524
12 | 30:33.50 | 1:51.07 | 137525 | 145856

Range status and errors

Selected range

Filename C:\222\SACD\1964 – 12 x 5\The Rolling Stones – 12 X 5 (SACD-hybrid).wav

Peak level 99.8 %
Extraction speed 2.7 X
Range quality 100.0 %
Test CRC 520B53C6
Copy CRC 520B53C6
Copy OK

No errors occurred

AccurateRip summary

Track 1 accurately ripped (confidence 5) [9900E185] (AR v2)
Track 2 accurately ripped (confidence 5) [EB72A3CE] (AR v2)
Track 3 accurately ripped (confidence 5) [01F3E579] (AR v2)
Track 4 accurately ripped (confidence 5) [4D352E49] (AR v2)
Track 5 accurately ripped (confidence 5) [728E5B7C] (AR v2)
Track 6 accurately ripped (confidence 5) [810B4218] (AR v2)
Track 7 accurately ripped (confidence 5) [8509597D] (AR v2)
Track 8 accurately ripped (confidence 5) [C98FFD89] (AR v2)
Track 9 accurately ripped (confidence 5) [46DD950B] (AR v2)
Track 10 accurately ripped (confidence 4) [966449DF] (AR v2)
Track 11 accurately ripped (confidence 4) [B362F34E] (AR v2)
Track 12 accurately ripped (confidence 4) [3C73BF7E] (AR v2)

All tracks accurately ripped

End of status report

==== Log checksum AB756BAC8B6C74A1D83E97FABB14C887B490F902EA72CF5F1386F53E54F5C738 ====

REM GENRE Rock
REM DATE 1965
REM DISCID A007980C
REM COMMENT “ExactAudioCopy v1.0b3”
PERFORMER “The Rolling Stones”
TITLE “12 X 5 (SACD-hybrid)”
FILE “The Rolling Stones – 12 X 5 (SACD-hybrid).flac” WAVE
TRACK 01 AUDIO
TITLE “Around And Around”
PERFORMER “The Rolling Stones”
ISRC USA176410130
INDEX 01 00:00:00
TRACK 02 AUDIO
TITLE “Confessin’ The Blues”
PERFORMER “The Rolling Stones”
ISRC USA176410140
INDEX 00 03:03:12
INDEX 01 03:03:62
TRACK 03 AUDIO
TITLE “Empty Heart”
PERFORMER “The Rolling Stones”
ISRC USA176410150
INDEX 00 05:51:20
INDEX 01 05:52:50
TRACK 04 AUDIO
TITLE “Time Is On My Side”
PERFORMER “The Rolling Stones”
ISRC USA176410160
INDEX 00 08:29:50
INDEX 01 08:31:32
TRACK 05 AUDIO
TITLE “Good Times, Bad Times”
PERFORMER “The Rolling Stones”
ISRC USA176410170
INDEX 00 11:24:12
INDEX 01 11:25:67
TRACK 06 AUDIO
TITLE “It’s All Over Now”
PERFORMER “The Rolling Stones”
ISRC USA176410180
INDEX 00 13:56:07
INDEX 01 13:57:47
TRACK 07 AUDIO
TITLE “2120 South Michigan Avenue”
PERFORMER “The Rolling Stones”
ISRC USA176410350
INDEX 00 17:24:07
INDEX 01 17:25:10
TRACK 08 AUDIO
TITLE “Under The Boardwalk”
PERFORMER “The Rolling Stones”
ISRC USA176410200
INDEX 00 21:03:47
INDEX 01 21:04:70
TRACK 09 AUDIO
TITLE “Congratulations”
PERFORMER “The Rolling Stones”
ISRC USA176410210
INDEX 00 23:51:37
INDEX 01 23:52:17
TRACK 10 AUDIO
TITLE “Grown Up Wrong”
PERFORMER “The Rolling Stones”
ISRC USA176410220
INDEX 00 26:21:17
INDEX 01 26:21:67
TRACK 11 AUDIO
TITLE “If You Need Me”
PERFORMER “The Rolling Stones”
ISRC USA176410230
INDEX 00 28:27:47
INDEX 01 28:28:25
TRACK 12 AUDIO
TITLE “Susie Q”
PERFORMER “The Rolling Stones”
ISRC USA176410240
INDEX 00 30:32:50
INDEX 01 30:33:50


Leave a Reply

Your email address will not be published. Required fields are marked *

Enter the text from the image below
 

This site uses Akismet to reduce spam. Learn how your comment data is processed.