The Rolling Stones – 12 X 5 (Japanese Edition)




Artist: The Rolling Stones
Year: 1964/1989
Genre: Rock
Notes: Discogs
Add. Notes: Japanese Edition
Cover incl.: Yes
Encoder: FLAC
Bitrate: ~900 kBit/s (44.1 kHz/16 Bit/s)
Log & Cue incl.: Yes
Size: 162,1 MB
Password: “slam” (without ” “)


All Downloads/Hosters are compatible

Download 1
KatFile.com
Turbobit.net
FileFactory.com
Rapidgator.net
Download 2
KatFile.com
Turbobit.net
FileFactory.com
Rapidgator.net

Tracklist:

1 Around And Around 3:04
2 Confessin' The Blues 2:46
3 Empty Heart 2:36
4 Time Is On My Side 2:50
5 Good Times, Bad Times 2:30
6 It's All Over Now 3:26
7 2120 South Michigan Avenue 2:06
8 Under The Boardwalk 2:44
9 Congratulations 2:26
10 Grown Up Wrong 2:04
11 If You Need Me 2:02
12 Susie Q 1:47

EAC-Log, CUE-Sheed & NFO:

Click to open spoiler
Exact Audio Copy V1.0 beta 3 from 29. August 2011

EAC extraction logfile from 13. January 2015, 15:51

The Rolling Stones / 12 x 5 [P25L 25032]

Used drive : HL-DT-STDVD+-RW GH50N Adapter: 0 ID: 1

Read mode : Secure
Utilize accurate stream : Yes
Defeat audio cache : Yes
Make use of C2 pointers : No

Read offset correction : 667
Overread into Lead-In and Lead-Out : No
Fill up missing offset samples with silence : Yes
Delete leading and trailing silent blocks : No
Null samples used in CRC calculations : Yes
Used interface : Native Win32 interface for Win NT & 2000

Used output format : User Defined Encoder
Selected bitrate : 768 kBit/s
Quality : High
Add ID3 tag : No
Command line compressor : C:\Program Files (x86)\Exact Audio Copy\FLAC\FLAC.EXE
Additional command line options : -V -8 -T “Date=%year%” -T “Genre=%genre%” %source%

TOC of the extracted CD

Track | Start | Length | Start sector | End sector
———————————————————
1 | 0:00.37 | 3:08.23 | 37 | 14159
2 | 3:08.60 | 2:51.32 | 14160 | 27016
3 | 6:00.17 | 2:39.73 | 27017 | 39014
4 | 8:40.15 | 2:55.00 | 39015 | 52139
5 | 11:35.15 | 2:36.15 | 52140 | 63854
6 | 14:11.30 | 3:30.27 | 63855 | 79631
7 | 17:41.57 | 2:10.55 | 79632 | 89436
8 | 19:52.37 | 2:48.70 | 89437 | 102106
9 | 22:41.32 | 2:30.45 | 102107 | 113401
10 | 25:12.02 | 2:08.18 | 113402 | 123019
11 | 27:20.20 | 2:06.22 | 123020 | 132491
12 | 29:26.42 | 1:49.20 | 132492 | 140686

Range status and errors

Selected range

Filename C:\222\London\Japan\1964 – 12×5\The Rolling Stones – 12 x 5 [P25L 25032].wav

Peak level 92.2 %
Extraction speed 2.7 X
Range quality 99.9 %
Test CRC F33F52E5
Copy CRC F33F52E5
Copy OK

No errors occurred

AccurateRip summary

Track 1 accurately ripped (confidence 1) [B3B3659E] (AR v2)
Track 2 accurately ripped (confidence 1) [8442F7F2] (AR v2)
Track 3 accurately ripped (confidence 1) [BE28FE5B] (AR v2)
Track 4 accurately ripped (confidence 1) [31E32B07] (AR v2)
Track 5 accurately ripped (confidence 1) [ADD4FCF8] (AR v2)
Track 6 accurately ripped (confidence 1) [0B3B8D5A] (AR v2)
Track 7 accurately ripped (confidence 1) [EAA39F2F] (AR v2)
Track 8 accurately ripped (confidence 1) [A1DFA3A4] (AR v2)
Track 9 accurately ripped (confidence 1) [45F08045] (AR v2)
Track 10 accurately ripped (confidence 1) [C900085E] (AR v2)
Track 11 accurately ripped (confidence 1) [8BBC19B7] (AR v2)
Track 12 accurately ripped (confidence 1) [F6EAECDB] (AR v2)

All tracks accurately ripped

End of status report

==== Log checksum 0725E99E604DC34A66D3A76BD9A5E849770EFF8775E42C6038A8ED8AEC32F5DC ====

REM GENRE Rock
REM DATE 1964
REM DISCID 9A07530C
REM COMMENT “ExactAudioCopy v1.0b3”
PERFORMER “The Rolling Stones”
TITLE “12 x 5 [P25L 25032]”
FILE “The Rolling Stones – 12 x 5 [P25L 25032].flac” WAVE
TRACK 01 AUDIO
TITLE “Around And Around”
PERFORMER “The Rolling Stones”
INDEX 00 00:00:00
INDEX 01 00:00:37
TRACK 02 AUDIO
TITLE “Confessin’ The Blues”
PERFORMER “The Rolling Stones”
INDEX 00 03:06:00
INDEX 01 03:08:60
TRACK 03 AUDIO
TITLE “Empty Heart”
PERFORMER “The Rolling Stones”
INDEX 00 05:56:67
INDEX 01 06:00:17
TRACK 04 AUDIO
TITLE “Time Is On My Side”
PERFORMER “The Rolling Stones”
INDEX 00 08:37:47
INDEX 01 08:40:15
TRACK 05 AUDIO
TITLE “Good Times, Bad Times”
PERFORMER “The Rolling Stones”
INDEX 00 11:32:47
INDEX 01 11:35:15
TRACK 06 AUDIO
TITLE “It’s All Over Now”
PERFORMER “The Rolling Stones”
INDEX 00 14:08:35
INDEX 01 14:11:30
TRACK 07 AUDIO
TITLE “2120 South Michigan Avenue”
PERFORMER “The Rolling Stones”
INDEX 00 17:38:62
INDEX 01 17:41:57
TRACK 08 AUDIO
TITLE “Under The Boardwalk”
PERFORMER “The Rolling Stones”
INDEX 00 19:50:02
INDEX 01 19:52:37
TRACK 09 AUDIO
TITLE “Congratulations”
PERFORMER “The Rolling Stones”
INDEX 00 22:38:42
INDEX 01 22:41:32
TRACK 10 AUDIO
TITLE “Grown Up Wrong”
PERFORMER “The Rolling Stones”
INDEX 00 25:09:35
INDEX 01 25:12:02
TRACK 11 AUDIO
TITLE “If You Need Me”
PERFORMER “The Rolling Stones”
INDEX 00 27:18:17
INDEX 01 27:20:20
TRACK 12 AUDIO
TITLE “Susie Q”
PERFORMER “The Rolling Stones”
INDEX 00 29:23:50
INDEX 01 29:26:42


Leave a Reply

Your email address will not be published. Required fields are marked *

Enter the text from the image below
 

This site uses Akismet to reduce spam. Learn how your comment data is processed.