The Rasmus – Dead Letters (Special Edition)




Artist: The Rasmus
Year: 2004
Genre: Rock
Notes: Discogs
Add. Notes: Special Edition
Encoder: FLAC
Bitrate: ~1000 kBit/s (VBR)
Size: 349,06 MB
Password: “slam” (without ” “)


Tracklist:

1	First Day Of My Life	3:43
2	In The Shadows	4:08
3	Still Standing	3:27
4	In My Life	4:01
5	Time To Burn	4:32
6	Guilty	3:40
7	Not Like The Other Girls	5:43
8	The One I Love	3:14
9	Back In The Picture	3:41
10	Funeral Song	3:17
UK Bonus Tracks
11	F-F-F-Falling	3:55
12	If You Ever	3:48
13	What Ever	3:13

EAC-Log, CUE-Sheed & NFO:

Click to open spoiler
Exact Audio Copy V1.0 beta 1 from 15. November 2010

EAC extraction logfile from 25. May 2011, 20:37

The Rasmus / Dead Letters (Uk Bonus)

Used drive : PHILIPS DVDR1628P1 Adapter: 0 ID: 0

Read mode : Secure
Utilize accurate stream : Yes
Defeat audio cache : Yes
Make use of C2 pointers : No

Read offset correction : 618
Overread into Lead-In and Lead-Out : No
Fill up missing offset samples with silence : Yes
Delete leading and trailing silent blocks : No
Null samples used in CRC calculations : Yes
Used interface : Native Win32 interface for Win NT & 2000
Gap handling : Appended to previous track

Used output format : User Defined Encoder
Selected bitrate : 128 kBit/s
Quality : High
Add ID3 tag : No
Command line compressor : C:\Program Files (x86)\Exact Audio Copy\Flac\flac.exe
Additional command line options : -V -8 -T “artist=%a” -T “title=%t” -T “album=%g” -T “date=%y” -T “tracknumber=%n” -T “genre=%m” %s

TOC of the extracted CD

Track | Start | Length | Start sector | End sector
———————————————————
1 | 0:00.00 | 3:44.14 | 0 | 16813
2 | 3:44.14 | 4:08.40 | 16814 | 35453
3 | 7:52.54 | 3:29.68 | 35454 | 51196
4 | 11:22.47 | 4:00.74 | 51197 | 69270
5 | 15:23.46 | 4:32.11 | 69271 | 89681
6 | 19:55.57 | 3:41.16 | 89682 | 106272
7 | 23:36.73 | 5:43.70 | 106273 | 132067
8 | 29:20.68 | 3:15.59 | 132068 | 146751
9 | 32:36.52 | 3:43.07 | 146752 | 163483
10 | 36:19.59 | 3:47.44 | 163484 | 180552
11 | 40:07.28 | 3:55.63 | 180553 | 198240
12 | 44:03.16 | 3:49.63 | 198241 | 215478
13 | 47:53.04 | 3:13.47 | 215479 | 230000

Track 1

Filename D:\OiNK.me.uk files\FLAC\The Rasmus\2004 – The Rasmus – Dead Letters (9818057) [FLAC]\01 – The Rasmus – First Day Of My Life.wav

Pre-gap length 0:00:02.00

Peak level 100.0 %
Extraction speed 1.2 X
Track quality 100.0 %
Test CRC E1FA467A
Copy CRC E1FA467A
Accurately ripped (confidence 2) [DDC235D5]
Copy OK

Track 2

Filename D:\OiNK.me.uk files\FLAC\The Rasmus\2004 – The Rasmus – Dead Letters (9818057) [FLAC]\02 – The Rasmus – In The Shadows.wav

Pre-gap length 0:00:00.76

Peak level 100.0 %
Extraction speed 1.4 X
Track quality 100.0 %
Test CRC CA30C1A5
Copy CRC CA30C1A5
Accurately ripped (confidence 2) [518DC372]
Copy OK

Track 3

Filename D:\OiNK.me.uk files\FLAC\The Rasmus\2004 – The Rasmus – Dead Letters (9818057) [FLAC]\03 – The Rasmus – Still Standing.wav

Peak level 100.0 %
Extraction speed 1.5 X
Track quality 100.0 %
Test CRC CA937673
Copy CRC CA937673
Accurately ripped (confidence 2) [C7EFA1B0]
Copy OK

Track 4

Filename D:\OiNK.me.uk files\FLAC\The Rasmus\2004 – The Rasmus – Dead Letters (9818057) [FLAC]\04 – The Rasmus – In My Life.wav

Pre-gap length 0:00:02.09

Peak level 100.0 %
Extraction speed 1.6 X
Track quality 100.0 %
Test CRC D7765227
Copy CRC D7765227
Accurately ripped (confidence 2) [3B7F0F2E]
Copy OK

Track 5

Filename D:\OiNK.me.uk files\FLAC\The Rasmus\2004 – The Rasmus – Dead Letters (9818057) [FLAC]\05 – The Rasmus – Time To Burn.wav

Peak level 100.0 %
Extraction speed 1.8 X
Track quality 100.0 %
Test CRC 437E3C86
Copy CRC 437E3C86
Accurately ripped (confidence 2) [5A05719C]
Copy OK

Track 6

Filename D:\OiNK.me.uk files\FLAC\The Rasmus\2004 – The Rasmus – Dead Letters (9818057) [FLAC]\06 – The Rasmus – Guilty.wav

Peak level 100.0 %
Extraction speed 1.9 X
Track quality 100.0 %
Test CRC 61470C1E
Copy CRC 61470C1E
Accurately ripped (confidence 2) [3F75509C]
Copy OK

Track 7

Filename D:\OiNK.me.uk files\FLAC\The Rasmus\2004 – The Rasmus – Dead Letters (9818057) [FLAC]\07 – The Rasmus – Not Like The Other Girls.wav

Pre-gap length 0:00:00.57

Peak level 100.0 %
Extraction speed 2.1 X
Track quality 100.0 %
Test CRC C5444B00
Copy CRC C5444B00
Accurately ripped (confidence 2) [569DB3C8]
Copy OK

Track 8

Filename D:\OiNK.me.uk files\FLAC\The Rasmus\2004 – The Rasmus – Dead Letters (9818057) [FLAC]\08 – The Rasmus – The One I Love.wav

Peak level 100.0 %
Extraction speed 2.0 X
Track quality 100.0 %
Test CRC 757271FC
Copy CRC 757271FC
Accurately ripped (confidence 2) [D4FBFF93]
Copy OK

Track 9

Filename D:\OiNK.me.uk files\FLAC\The Rasmus\2004 – The Rasmus – Dead Letters (9818057) [FLAC]\09 – The Rasmus – Back In The Picture.wav

Pre-gap length 0:00:00.93

Peak level 100.0 %
Extraction speed 2.2 X
Track quality 100.0 %
Test CRC 706B8ECE
Copy CRC 706B8ECE
Accurately ripped (confidence 2) [5EC5C8B3]
Copy OK

Track 10

Filename D:\OiNK.me.uk files\FLAC\The Rasmus\2004 – The Rasmus – Dead Letters (9818057) [FLAC]\10 – The Rasmus – Funeral Song.wav

Pre-gap length 0:00:01.76

Peak level 100.0 %
Extraction speed 2.2 X
Track quality 100.0 %
Test CRC D78543CB
Copy CRC D78543CB
Accurately ripped (confidence 2) [4220CCEB]
Copy OK

Track 11

Filename D:\OiNK.me.uk files\FLAC\The Rasmus\2004 – The Rasmus – Dead Letters (9818057) [FLAC]\11 – The Rasmus – F-F-F-Falling.wav

Pre-gap length 0:00:29.92

Peak level 100.0 %
Extraction speed 2.3 X
Track quality 100.0 %
Test CRC 5493D8E4
Copy CRC 5493D8E4
Accurately ripped (confidence 2) [405A3F77]
Copy OK

Track 12

Filename D:\OiNK.me.uk files\FLAC\The Rasmus\2004 – The Rasmus – Dead Letters (9818057) [FLAC]\12 – The Rasmus – If You Ever.wav

Pre-gap length 0:00:00.06

Peak level 97.7 %
Extraction speed 2.4 X
Track quality 100.0 %
Test CRC 0AE5516F
Copy CRC 0AE5516F
Accurately ripped (confidence 2) [852D3C35]
Copy OK

Track 13

Filename D:\OiNK.me.uk files\FLAC\The Rasmus\2004 – The Rasmus – Dead Letters (9818057) [FLAC]\13 – The Rasmus – What Ever.wav

Pre-gap length 0:00:00.70

Peak level 92.0 %
Extraction speed 2.0 X
Track quality 99.9 %
Test CRC 4A1B2BAE
Copy CRC 4A1B2BAE
Accurately ripped (confidence 2) [F2A2DD62]
Copy OK

All tracks accurately ripped

No errors occurred

End of status report

==== Log checksum 90622AA93142D3022BB02AA6D61DF6E5E20A44BEF8E59BA40CD17877C08354A0 ====

REM GENRE Rock
REM DATE 2004
REM DISCID C60BFA0D
REM COMMENT “ExactAudioCopy v1.0b1”
FILE “01 – The Rasmus – First Day Of My Life.wav” WAVE
TRACK 01 AUDIO
INDEX 01 00:00:00
TRACK 02 AUDIO
FLAGS DCP
INDEX 00 03:43:32
FILE “02 – The Rasmus – In The Shadows.wav” WAVE
INDEX 01 00:00:00
FILE “03 – The Rasmus – Still Standing.wav” WAVE
TRACK 03 AUDIO
FLAGS DCP
INDEX 01 00:00:00
TRACK 04 AUDIO
FLAGS DCP
INDEX 00 03:27:61
FILE “04 – The Rasmus – In My Life.wav” WAVE
INDEX 01 00:00:00
FILE “05 – The Rasmus – Time To Burn.wav” WAVE
TRACK 05 AUDIO
FLAGS DCP
INDEX 01 00:00:00
FILE “06 – The Rasmus – Guilty.wav” WAVE
TRACK 06 AUDIO
FLAGS DCP
INDEX 01 00:00:00
TRACK 07 AUDIO
FLAGS DCP
INDEX 00 03:40:48
FILE “07 – The Rasmus – Not Like The Other Girls.wav” WAVE
INDEX 01 00:00:00
FILE “08 – The Rasmus – The One I Love.wav” WAVE
TRACK 08 AUDIO
FLAGS DCP
INDEX 01 00:00:00
TRACK 09 AUDIO
FLAGS DCP
INDEX 00 03:14:64
FILE “09 – The Rasmus – Back In The Picture.wav” WAVE
INDEX 01 00:00:00
TRACK 10 AUDIO
FLAGS DCP
INDEX 00 03:41:25
FILE “10 – The Rasmus – Funeral Song.wav” WAVE
INDEX 01 00:00:00
TRACK 11 AUDIO
FLAGS DCP
INDEX 00 03:17:50
FILE “11 – The Rasmus – F-F-F-Falling.wav” WAVE
INDEX 01 00:00:00
TRACK 12 AUDIO
FLAGS DCP
INDEX 00 03:55:58
FILE “12 – The Rasmus – If You Ever.wav” WAVE
INDEX 01 00:00:00
TRACK 13 AUDIO
FLAGS DCP
INDEX 00 03:49:10
FILE “13 – The Rasmus – What Ever.wav” WAVE
INDEX 01 00:00:00

Leave a Reply

Your email address will not be published. Required fields are marked *

This site uses Akismet to reduce spam. Learn how your comment data is processed.