The Rasmus – Black Roses (Japanese Edition)




Artist: The Rasmus
Year: 2008
Genre: Rock
Notes: Discogs
Add. Notes: Japanese Edition
Cover incl.: Yes
Encoder: FLAC
Bitrate: ~1000 kBit/s (44.1 kHz/16 Bit/s)
Log & Cue incl.: Yes
Size: 459,06 MB
Password: “slam” (without ” “)


All Downloads/Hosters are compatible

Download 1
Turbobit.net
Rapidgator.net
KatFile.com
UploadRar.com
Download 2
Turbobit.net
Rapidgator.net
KatFile.com
UploadRar.com

Tracklist:

1 - Livin' In A World Without You - 3:50
2 - Ten Black Roses - 3:54
3 - Ghost Of Love - 3:17
4 - Justify - 4:26
5 - Your Forgiveness - 3:55
6 - Run To You - 4:11
7 - You Got It Wrong - 3:17
8 - Lost And Lonely - 4:46
9 - The Fight - 3:45
10 - Dangerous Kind - 3:46
11 - Live Forever - 3:22
12 - Yesterday You Threw Away Tomorrow - 3:06
13 - Livin' In A World Without You (Starcity Remix) - 5:55

EAC-Log, CUE-Sheed & NFO:

Click to open spoiler
Exact Audio Copy V1.0 beta 3 from 29. August 2011

EAC extraction logfile from 7. January 2013, 19:36

The Rasmus / Black Roses (Special Edition SHM-CD UICO-9043)

Used drive : ATAPI iHAP122 W Adapter: 0 ID: 1

Read mode : Secure
Utilize accurate stream : Yes
Defeat audio cache : Yes
Make use of C2 pointers : No

Read offset correction : 6
Overread into Lead-In and Lead-Out : No
Fill up missing offset samples with silence : Yes
Delete leading and trailing silent blocks : No
Null samples used in CRC calculations : Yes
Used interface : Native Win32 interface for Win NT & 2000
Gap handling : Appended to previous track

Used output format : User Defined Encoder
Selected bitrate : 1024 kBit/s
Quality : High
Add ID3 tag : No
Command line compressor : C:\Program Files (x86)\Exact Audio Copy\FLAC\FLAC.EXE
Additional command line options : -8 -V -T “ARTIST=%artist%” -T “TITLE=%title%” -T “ALBUM=%albumtitle%” -T “DATE=%year%” -T “TRACKNUMBER=%tracknr%” -T “TOTALTRACKS=%numtracks%” -T “GENRE=%genre%” -T “ALBUMARTIST=%albumartist%” -T “ALBUM ARTIST=%albumartist%” -T “COMMENT=EAC V1.0 beta 3, Secure Mode, Test & Copy, AccurateRip, FLAC -8” %source%

TOC of the extracted CD

Track | Start | Length | Start sector | End sector
———————————————————
1 | 0:00.00 | 3:50.16 | 0 | 17265
2 | 3:50.16 | 3:54.06 | 17266 | 34821
3 | 7:44.22 | 3:17.53 | 34822 | 49649
4 | 11:02.00 | 4:26.46 | 49650 | 69645
5 | 15:28.46 | 3:55.55 | 69646 | 87325
6 | 19:24.26 | 4:11.49 | 87326 | 106199
7 | 23:36.00 | 3:17.06 | 106200 | 120980
8 | 26:53.06 | 4:46.08 | 120981 | 142438
9 | 31:39.14 | 3:45.70 | 142439 | 159383
10 | 35:25.09 | 3:46.69 | 159384 | 176402
11 | 39:12.03 | 3:22.07 | 176403 | 191559
12 | 42:34.10 | 3:06.56 | 191560 | 205565
13 | 45:40.66 | 5:55.55 | 205566 | 232245

Track 1

Filename D:\EAC Rips\01 – Livin’ In A World Without You.wav

Pre-gap length 0:00:02.00

Peak level 99.8 %
Extraction speed 3.3 X
Track quality 100.0 %
Test CRC F80C1F0F
Copy CRC F80C1F0F
Accurately ripped (confidence 1) [38576679] (AR v1)
Copy OK

Track 2

Filename D:\EAC Rips\02 – Ten Black Roses.wav

Peak level 99.0 %
Extraction speed 3.7 X
Track quality 100.0 %
Test CRC 69470E27
Copy CRC 69470E27
Accurately ripped (confidence 1) [384D4E6C] (AR v1)
Copy OK

Track 3

Filename D:\EAC Rips\03 – Ghost Of Love.wav

Peak level 97.9 %
Extraction speed 3.9 X
Track quality 100.0 %
Test CRC C62D59D3
Copy CRC C62D59D3
Accurately ripped (confidence 1) [C528A45F] (AR v1)
Copy OK

Track 4

Filename D:\EAC Rips\04 – Justify.wav

Peak level 99.8 %
Extraction speed 4.3 X
Track quality 100.0 %
Test CRC CF2AC09C
Copy CRC CF2AC09C
Accurately ripped (confidence 1) [6C0C345D] (AR v1)
Copy OK

Track 5

Filename D:\EAC Rips\05 – Your Forgiveness.wav

Pre-gap length 0:00:00.54

Peak level 99.8 %
Extraction speed 3.7 X
Track quality 99.9 %
Test CRC 954D9275
Copy CRC 954D9275
Accurately ripped (confidence 1) [08EA70A3] (AR v1)
Copy OK

Track 6

Filename D:\EAC Rips\06 – Run To You.wav

Peak level 98.3 %
Extraction speed 4.0 X
Track quality 99.9 %
Test CRC B3757195
Copy CRC B3757195
Accurately ripped (confidence 1) [7EB4ED1D] (AR v1)
Copy OK

Track 7

Filename D:\EAC Rips\07 – You Got It Wrong.wav

Pre-gap length 0:00:01.32

Peak level 98.1 %
Extraction speed 4.9 X
Track quality 100.0 %
Test CRC 63447223
Copy CRC 63447223
Accurately ripped (confidence 1) [3690086D] (AR v1)
Copy OK

Track 8

Filename D:\EAC Rips\08 – Lost And Lonely.wav

Pre-gap length 0:00:01.43

Peak level 98.6 %
Extraction speed 5.4 X
Track quality 100.0 %
Test CRC 6AEC233C
Copy CRC 6AEC233C
Accurately ripped (confidence 1) [4D69C927] (AR v1)
Copy OK

Track 9

Filename D:\EAC Rips\09 – Fight.wav

Peak level 97.6 %
Extraction speed 5.5 X
Track quality 100.0 %
Test CRC EA1C8EA6
Copy CRC EA1C8EA6
Accurately ripped (confidence 1) [3DD4727F] (AR v1)
Copy OK

Track 10

Filename D:\EAC Rips\10 – Dangerous Kind.wav

Pre-gap length 0:00:00.73

Peak level 99.8 %
Extraction speed 5.7 X
Track quality 100.0 %
Test CRC 16AA9948
Copy CRC 16AA9948
Accurately ripped (confidence 1) [455C15C2] (AR v1)
Copy OK

Track 11

Filename D:\EAC Rips\11 – Live Forever.wav

Peak level 96.8 %
Extraction speed 5.7 X
Track quality 100.0 %
Test CRC 43513B42
Copy CRC 43513B42
Accurately ripped (confidence 1) [67795916] (AR v1)
Copy OK

Track 12

Filename D:\EAC Rips\12 – Yesterday You Threw Away Tomorrow [Bonus Track].wav

Pre-gap length 0:00:01.10

Peak level 98.8 %
Extraction speed 5.8 X
Track quality 100.0 %
Test CRC 35C38283
Copy CRC 35C38283
Accurately ripped (confidence 1) [BEB112AF] (AR v1)
Copy OK

Track 13

Filename D:\EAC Rips\13 – Livin’ in a World Without You (Starcity Remix) [Bonus Track].wav

Pre-gap length 0:00:01.52

Peak level 98.8 %
Extraction speed 6.6 X
Track quality 100.0 %
Test CRC B1D93B79
Copy CRC B1D93B79
Accurately ripped (confidence 1) [E8BEE7A1] (AR v1)
Copy OK

All tracks accurately ripped

No errors occurred

End of status report

—- CUETools DB Plugin V2.1.3

[CTDB TOCID: DjUOyDMV_MzfpzecwYFaoTUYsPw-] found, Submit result: DjUOyDMV_MzfpzecwYFaoTUYsPw- has been confirmed
[9441c3f5] (1/1) Accurately ripped

==== Log checksum 8DCB1809701BCE276BC674ACDB2E6BAAD1E987F72E0664C52401607626F4B81B ====

REM GENRE Alternative
REM DATE 2008
REM DISCID A40C180D
REM COMMENT “ExactAudioCopy v1.0b3”
PERFORMER “The Rasmus”
TITLE “Black Roses (Special Edition SHM-CD UICO-9043)”
FILE “01 – Livin’ In A World Without You.wav” WAVE
TRACK 01 AUDIO
TITLE “Livin’ In A World Without You”
PERFORMER “The Rasmus”
INDEX 01 00:00:00
FILE “02 – Ten Black Roses.wav” WAVE
TRACK 02 AUDIO
TITLE “Ten Black Roses”
PERFORMER “The Rasmus”
INDEX 01 00:00:00
FILE “03 – Ghost Of Love.wav” WAVE
TRACK 03 AUDIO
TITLE “Ghost Of Love”
PERFORMER “The Rasmus”
INDEX 01 00:00:00
FILE “04 – Justify.wav” WAVE
TRACK 04 AUDIO
TITLE “Justify”
PERFORMER “The Rasmus”
INDEX 01 00:00:00
TRACK 05 AUDIO
TITLE “Your Forgiveness”
PERFORMER “The Rasmus”
INDEX 00 04:25:67
FILE “05 – Your Forgiveness.wav” WAVE
INDEX 01 00:00:00
FILE “06 – Run To You.wav” WAVE
TRACK 06 AUDIO
TITLE “Run To You”
PERFORMER “The Rasmus”
INDEX 01 00:00:00
TRACK 07 AUDIO
TITLE “You Got It Wrong”
PERFORMER “The Rasmus”
INDEX 00 04:10:17
FILE “07 – You Got It Wrong.wav” WAVE
INDEX 01 00:00:00
TRACK 08 AUDIO
TITLE “Lost And Lonely”
PERFORMER “The Rasmus”
INDEX 00 03:15:38
FILE “08 – Lost And Lonely.wav” WAVE
INDEX 01 00:00:00
FILE “09 – Fight.wav” WAVE
TRACK 09 AUDIO
TITLE “Fight”
PERFORMER “The Rasmus”
INDEX 01 00:00:00
TRACK 10 AUDIO
TITLE “Dangerous Kind”
PERFORMER “The Rasmus”
INDEX 00 03:44:72
FILE “10 – Dangerous Kind.wav” WAVE
INDEX 01 00:00:00
FILE “11 – Live Forever.wav” WAVE
TRACK 11 AUDIO
TITLE “Live Forever”
PERFORMER “The Rasmus”
INDEX 01 00:00:00
TRACK 12 AUDIO
TITLE “Yesterday You Threw Away Tomorrow [Bonus Track]”
PERFORMER “The Rasmus”
INDEX 00 03:20:72
FILE “12 – Yesterday You Threw Away Tomorrow [Bonus Track].wav” WAVE
INDEX 01 00:00:00
TRACK 13 AUDIO
TITLE “Livin’ in a World Without You (Starcity Remix) [Bonus Track]”
PERFORMER “The Rasmus”
INDEX 00 03:05:04
FILE “13 – Livin’ in a World Without You (Starcity Remix) [Bonus Track].wav” WAVE
INDEX 01 00:00:00


Leave a Reply

Your email address will not be published. Required fields are marked *

Enter the text from the image below
 

This site uses Akismet to reduce spam. Learn how your comment data is processed.