The Police – Zenyatta Mondatta




Artist: The Police
Year: 1980/1984
Genre: Punk
Notes: Discogs
Add. Notes:
Cover incl.: Yes
Encoder: FLAC
Bitrate: ~800 kBit/s (44.1 kHz/16 Bit/s)
Log & Cue incl.: Yes
Size: 442,94 MB
Password: “slam” (without ” “)


All Downloads/Hosters are compatible

Download 1
Turbobit.net
Rapidgator.net
KatFile.com
UploadRar.com
Download 2
Turbobit.net
Rapidgator.net
KatFile.com
UploadRar.com

Tracklist:

1 - Don't Stand So Close To Me - 4:03
2 - Driven To Tears - 3:21
3 - When The World Is Running Down, You Make The 
Best Of What's Still Around - 3:33
4 - Canary In A Coalmine - 2:24
5 - Voices Inside My Head - 3:51
6 - Bombs Away - 3:07
7 - De Do Do Do, De Da Da Da - 4:09
8 - Behind My Camel - 2:53
9 - Man In A Suitcase - 2:15
10 - Shadows In The Rain - 5:09
11 - The Other Way Of Stopping - 3:21

EAC-Log, CUE-Sheed & NFO:

Click to open spoiler
Exact Audio Copy V1.1 from 23. June 2015

EAC extraction logfile from 26. January 2016, 19:58

The Police / Zenyatta Mondatta

Used drive : TSSTcorpCDDVDW SE-208DB Adapter: 7 ID: 0

Read mode : Secure
Utilize accurate stream : Yes
Defeat audio cache : Yes
Make use of C2 pointers : No

Read offset correction : 6
Overread into Lead-In and Lead-Out : No
Fill up missing offset samples with silence : Yes
Delete leading and trailing silent blocks : No
Null samples used in CRC calculations : Yes
Used interface : Installed external ASPI interface
Gap handling : Appended to previous track

Used output format : User Defined Encoder
Selected bitrate : 1024 kBit/s
Quality : High
Add ID3 tag : No
Command line compressor : C:\Program Files (x86)\FLAC Frontend\tools\flac.exe
Additional command line options : -8 -V -T “ARTIST=%artist%” -T “TITLE=%title%” -T “ALBUM=%albumtitle%” -T “DATE=%year%” -T “TRACKNUMBER=%tracknr%” -T “TOTALTRACKS=%numtracks%” -T “GENRE=%genre%” -T “ALBUMARTIST=%albumartist%” -T “ALBUM ARTIST=%albumartist%” -T “COMMENT=EAC Secure Mode, Test & Copy, AccurateRip, FLAC -8” %source%

TOC of the extracted CD

Track | Start | Length | Start sector | End sector
———————————————————
1 | 0:00.33 | 4:03.15 | 33 | 18272
2 | 4:03.48 | 3:21.02 | 18273 | 33349
3 | 7:24.50 | 3:38.33 | 33350 | 49732
4 | 11:03.08 | 2:27.02 | 49733 | 60759
5 | 13:30.10 | 3:53.38 | 60760 | 78272
6 | 17:23.48 | 3:06.37 | 78273 | 92259
7 | 20:30.10 | 4:10.20 | 92260 | 111029
8 | 24:40.30 | 2:55.13 | 111030 | 124167
9 | 27:35.43 | 2:19.67 | 124168 | 134659
10 | 29:55.35 | 5:03.48 | 134660 | 157432
11 | 34:59.08 | 3:21.60 | 157433 | 172567

Track 1

Filename M:\_EAC\The Police – Zenyatta Mondatta (1980) [FLAC] {A&M Records 393 720-2}\01 – Don’t Stand So Close To Me.wav

Pre-gap length 0:00:02.33

Peak level 100.0 %
Extraction speed 1.0 X
Track quality 100.0 %
Test CRC ED889EB8
Copy CRC ED889EB8
Accurately ripped (confidence 87) [E2C77E85] (AR v2)
Copy OK

Track 2

Filename M:\_EAC\The Police – Zenyatta Mondatta (1980) [FLAC] {A&M Records 393 720-2}\02 – Driven To Tears.wav

Pre-gap length 0:00:03.28

Peak level 100.0 %
Extraction speed 1.0 X
Track quality 100.0 %
Test CRC 0DFEF28D
Copy CRC 0DFEF28D
Accurately ripped (confidence 88) [337B1B99] (AR v2)
Copy OK

Track 3

Filename M:\_EAC\The Police – Zenyatta Mondatta (1980) [FLAC] {A&M Records 393 720-2}\03 – When The World Is Running Down, You Make The Best Of What’s Still Around.wav

Peak level 97.1 %
Extraction speed 1.0 X
Track quality 99.9 %
Test CRC EDF5FA8E
Copy CRC EDF5FA8E
Accurately ripped (confidence 88) [20D610EA] (AR v2)
Copy OK

Track 4

Filename M:\_EAC\The Police – Zenyatta Mondatta (1980) [FLAC] {A&M Records 393 720-2}\04 – Canary In A Coalmine.wav

Pre-gap length 0:00:02.05

Peak level 90.6 %
Extraction speed 0.9 X
Track quality 99.9 %
Test CRC 53F8F3D9
Copy CRC 53F8F3D9
Accurately ripped (confidence 86) [2B7EF20D] (AR v2)
Copy OK

Track 5

Filename M:\_EAC\The Police – Zenyatta Mondatta (1980) [FLAC] {A&M Records 393 720-2}\05 – Voices Inside My Head.wav

Pre-gap length 0:00:02.10

Peak level 95.2 %
Extraction speed 1.3 X
Track quality 100.0 %
Test CRC A08A650A
Copy CRC A08A650A
Accurately ripped (confidence 88) [7CBD9FE6] (AR v2)
Copy OK

Track 6

Filename M:\_EAC\The Police – Zenyatta Mondatta (1980) [FLAC] {A&M Records 393 720-2}\06 – Bombs Away.wav

Pre-gap length 0:00:02.18

Peak level 96.4 %
Extraction speed 1.3 X
Track quality 100.0 %
Test CRC 96FAE889
Copy CRC 96FAE889
Accurately ripped (confidence 89) [FEECB84F] (AR v2)
Copy OK

Track 7

Filename M:\_EAC\The Police – Zenyatta Mondatta (1980) [FLAC] {A&M Records 393 720-2}\07 – De Do Do Do, De Da Da Da.wav

Pre-gap length 0:00:01.67

Peak level 95.0 %
Extraction speed 1.4 X
Track quality 100.0 %
Test CRC 2DF8BD55
Copy CRC 2DF8BD55
Accurately ripped (confidence 88) [9074CD0E] (AR v2)
Copy OK

Track 8

Filename M:\_EAC\The Police – Zenyatta Mondatta (1980) [FLAC] {A&M Records 393 720-2}\08 – Behind My Camel.wav

Pre-gap length 0:00:01.72

Peak level 100.0 %
Extraction speed 1.3 X
Track quality 100.0 %
Test CRC 2D4670B2
Copy CRC 2D4670B2
Accurately ripped (confidence 88) [8DA0EA2C] (AR v2)
Copy OK

Track 9

Filename M:\_EAC\The Police – Zenyatta Mondatta (1980) [FLAC] {A&M Records 393 720-2}\09 – Man In A Suitcase.wav

Pre-gap length 0:00:02.23

Peak level 100.0 %
Extraction speed 1.3 X
Track quality 100.0 %
Test CRC 6659061F
Copy CRC 6659061F
Accurately ripped (confidence 88) [04E239D3] (AR v2)
Copy OK

Track 10

Filename M:\_EAC\The Police – Zenyatta Mondatta (1980) [FLAC] {A&M Records 393 720-2}\10 – Shadows In The Rain.wav

Pre-gap length 0:00:02.15

Peak level 100.0 %
Extraction speed 1.6 X
Track quality 100.0 %
Test CRC 0334A894
Copy CRC 0334A894
Accurately ripped (confidence 87) [BF4D1288] (AR v2)
Copy OK

Track 11

Filename M:\_EAC\The Police – Zenyatta Mondatta (1980) [FLAC] {A&M Records 393 720-2}\11 – The Other Way Of Stopping.wav

Peak level 100.0 %
Extraction speed 1.5 X
Track quality 100.0 %
Test CRC 8E9A1611
Copy CRC 8E9A1611
Accurately ripped (confidence 86) [707F7800] (AR v2)
Copy OK

All tracks accurately ripped

No errors occurred

End of status report

==== Log checksum 2FC9C11930F5F73B911D217FD40F49A58AF2B6A77760B066390B531D17814DE7 ====

REM GENRE “New Wave”
REM DATE 1980
REM DISCID 8708FC0B
REM COMMENT “ExactAudioCopy v1.1”
PERFORMER “The Police”
TITLE “Zenyatta Mondatta”
FILE “01 – Don’t Stand So Close To Me.wav” WAVE
TRACK 01 AUDIO
TITLE “Don’t Stand So Close To Me”
PERFORMER “The Police”
PREGAP 00:00:33
INDEX 01 00:00:00
TRACK 02 AUDIO
TITLE “Driven To Tears”
PERFORMER “The Police”
INDEX 00 03:59:62
FILE “02 – Driven To Tears.wav” WAVE
INDEX 01 00:00:00
FILE “03 – When The World Is Running Down, You Make The Best Of What’s Still Around.wav” WAVE
TRACK 03 AUDIO
TITLE “When The World Is Running Down, You Make The Best Of What’s Still Around”
PERFORMER “The Police”
INDEX 01 00:00:00
TRACK 04 AUDIO
TITLE “Canary In A Coalmine”
PERFORMER “The Police”
INDEX 00 03:36:28
FILE “04 – Canary In A Coalmine.wav” WAVE
INDEX 01 00:00:00
TRACK 05 AUDIO
TITLE “Voices Inside My Head”
PERFORMER “The Police”
INDEX 00 02:24:67
FILE “05 – Voices Inside My Head.wav” WAVE
INDEX 01 00:00:00
TRACK 06 AUDIO
TITLE “Bombs Away”
PERFORMER “The Police”
INDEX 00 03:51:20
FILE “06 – Bombs Away.wav” WAVE
INDEX 01 00:00:00
TRACK 07 AUDIO
TITLE “De Do Do Do, De Da Da Da”
PERFORMER “The Police”
INDEX 00 03:04:45
FILE “07 – De Do Do Do, De Da Da Da.wav” WAVE
INDEX 01 00:00:00
TRACK 08 AUDIO
TITLE “Behind My Camel”
PERFORMER “The Police”
INDEX 00 04:08:23
FILE “08 – Behind My Camel.wav” WAVE
INDEX 01 00:00:00
TRACK 09 AUDIO
TITLE “Man In A Suitcase”
PERFORMER “The Police”
INDEX 00 02:52:65
FILE “09 – Man In A Suitcase.wav” WAVE
INDEX 01 00:00:00
TRACK 10 AUDIO
TITLE “Shadows In The Rain”
PERFORMER “The Police”
INDEX 00 02:17:52
FILE “10 – Shadows In The Rain.wav” WAVE
INDEX 01 00:00:00
FILE “11 – The Other Way Of Stopping.wav” WAVE
TRACK 11 AUDIO
TITLE “The Other Way Of Stopping”
PERFORMER “The Police”
INDEX 01 00:00:00


Leave a Reply

Your email address will not be published. Required fields are marked *

This site uses Akismet to reduce spam. Learn how your comment data is processed.