The Police – Zenyatta Mondatta (Remastered)




Artist: The Police
Year: 1980/2003
Genre: Rock
Notes: Discogs
Add. Notes: Remastered
Cover incl.: Yes
Encoder: FLAC
Bitrate: ~900 kBit/s (44.1 kHz/16 Bit/s)
Log & Cue incl.: Yes
Size: 270,85 MB
Password: “slam” (without ” “)


All Downloads/Hosters are compatible

Download 1
Turbobit.net
KatFile.com
Rapidgator.net
Usersdrive.com
Download 2
Turbobit.net
KatFile.com
Rapidgator.net
Usersdrive.com

Tracklist:

1 - Don't Stand So Close To Me - 4:04
2 - Driven To Tears - 3:20
3 - When The World Is Running Down - 3:38
4 - Canary In A Coalmine - 2:26
5 - Voices Inside My Head - 3:56
6 - Bombs Away - 3:09
7 - De Do Do Do, De Da Da Da - 4:09
8 - Behind My Camel - 2:54
9 - Man In A Suitcase - 2:19
10 - Shadows In The Rain - 5:02
11 - The Other Way Of Stopping - 3:22

EAC-Log, CUE-Sheed & NFO:

Click to open spoiler
Exact Audio Copy V0.99 prebeta 5 from 4. May 2009

EAC extraction logfile from 24. October 2009, 14:25

The Police / Zenyatta Mondatta

Used drive : ASUS DRW-2014L1 Adapter: 0 ID: 0

Read mode : Secure
Utilize accurate stream : Yes
Defeat audio cache : Yes
Make use of C2 pointers : No

Read offset correction : 6
Overread into Lead-In and Lead-Out : No
Fill up missing offset samples with silence : Yes
Delete leading and trailing silent blocks : No
Null samples used in CRC calculations : Yes
Used interface : Native Win32 interface for Win NT & 2000
Gap handling : Appended to previous track

Used output format : User Defined Encoder
Selected bitrate : 1024 kBit/s
Quality : High
Add ID3 tag : No
Command line compressor : C:\Program Files\Exact Audio Copy\FLAC\FLAC.EXE
Additional command line options : -8 -V -T “ARTIST=%a” -T “TITLE=%t” -T “ALBUM=%g” -T “DATE=%y” -T “TRACKNUMBER=%n” -T “GENRE=%m” -T “COMMENT=EAC FLAC -8” %s

TOC of the extracted CD

Track | Start | Length | Start sector | End sector
———————————————————
1 | 0:00.00 | 4:04.18 | 0 | 18317
2 | 4:04.18 | 3:20.40 | 18318 | 33357
3 | 7:24.58 | 3:38.00 | 33358 | 49707
4 | 11:02.58 | 2:26.50 | 49708 | 60707
5 | 13:29.33 | 3:53.19 | 60708 | 78201
6 | 17:22.52 | 3:09.41 | 78202 | 92417
7 | 20:32.18 | 4:09.42 | 92418 | 111134
8 | 24:41.60 | 2:54.67 | 111135 | 124251
9 | 27:36.52 | 2:19.46 | 124252 | 134722
10 | 29:56.23 | 5:02.52 | 134723 | 157424
11 | 34:59.00 | 3:22.23 | 157425 | 172597

Track 1

Filename C:\The Police – Zenyatta Mondatta (1980) [FLAC] {A&M Records 069 493 597-2}\01 – Don’t Stand So Close to Me.wav

Pre-gap length 0:00:02.00

Peak level 98.8 %
Track quality 100.0 %
Test CRC ED75F411
Copy CRC ED75F411
Accurately ripped (confidence 73) [7E93B39A]
Copy OK

Track 2

Filename C:\The Police – Zenyatta Mondatta (1980) [FLAC] {A&M Records 069 493 597-2}\02 – Driven to Tears.wav

Pre-gap length 0:00:01.43

Peak level 98.8 %
Track quality 100.0 %
Test CRC C88D9FA4
Copy CRC C88D9FA4
Accurately ripped (confidence 72) [283DEB03]
Copy OK

Track 3

Filename C:\The Police – Zenyatta Mondatta (1980) [FLAC] {A&M Records 069 493 597-2}\03 – When the World Is Running Down, You Make the Best of What’s Still Around.wav

Peak level 98.8 %
Track quality 100.0 %
Test CRC C9DB99EB
Copy CRC C9DB99EB
Accurately ripped (confidence 72) [06DF8C6C]
Copy OK

Track 4

Filename C:\The Police – Zenyatta Mondatta (1980) [FLAC] {A&M Records 069 493 597-2}\04 – Canary in a Coalmine.wav

Pre-gap length 0:00:01.25

Peak level 98.8 %
Track quality 100.0 %
Test CRC 9F6DF828
Copy CRC 9F6DF828
Accurately ripped (confidence 72) [87816377]
Copy OK

Track 5

Filename C:\The Police – Zenyatta Mondatta (1980) [FLAC] {A&M Records 069 493 597-2}\05 – Voices Inside My Head.wav

Peak level 98.8 %
Track quality 100.0 %
Test CRC A9505976
Copy CRC A9505976
Accurately ripped (confidence 71) [94895738]
Copy OK

Track 6

Filename C:\The Police – Zenyatta Mondatta (1980) [FLAC] {A&M Records 069 493 597-2}\06 – Bombs Away.wav

Peak level 98.8 %
Track quality 100.0 %
Test CRC CAA07713
Copy CRC CAA07713
Accurately ripped (confidence 72) [B65EF4F3]
Copy OK

Track 7

Filename C:\The Police – Zenyatta Mondatta (1980) [FLAC] {A&M Records 069 493 597-2}\07 – De Do Do Do, De Da Da Da.wav

Pre-gap length 0:00:01.50

Peak level 98.8 %
Track quality 100.0 %
Test CRC 1901EB7A
Copy CRC 1901EB7A
Accurately ripped (confidence 72) [B65E777B]
Copy OK

Track 8

Filename C:\The Police – Zenyatta Mondatta (1980) [FLAC] {A&M Records 069 493 597-2}\08 – Behind My Camel.wav

Pre-gap length 0:00:02.20

Peak level 98.8 %
Track quality 100.0 %
Test CRC 59EEB340
Copy CRC 59EEB340
Accurately ripped (confidence 72) [D1E8A695]
Copy OK

Track 9

Filename C:\The Police – Zenyatta Mondatta (1980) [FLAC] {A&M Records 069 493 597-2}\09 – Man in a Suitcase.wav

Pre-gap length 0:00:01.22

Peak level 98.8 %
Track quality 100.0 %
Test CRC 985961BD
Copy CRC 985961BD
Accurately ripped (confidence 72) [CDF1AE97]
Copy OK

Track 10

Filename C:\The Police – Zenyatta Mondatta (1980) [FLAC] {A&M Records 069 493 597-2}\10 – Shadows in the Rain.wav

Pre-gap length 0:00:01.41

Peak level 98.8 %
Track quality 100.0 %
Test CRC E5569CF1
Copy CRC E5569CF1
Accurately ripped (confidence 72) [9997AC7E]
Copy OK

Track 11

Filename C:\The Police – Zenyatta Mondatta (1980) [FLAC] {A&M Records 069 493 597-2}\11 – The Other Way of Stopping.wav

Peak level 98.8 %
Track quality 100.0 %
Test CRC 4DBBE98B
Copy CRC 4DBBE98B
Accurately ripped (confidence 68) [7F73F3E3]
Copy OK

All tracks accurately ripped

No errors occurred

End of status report

REM GENRE Rock
REM DATE 1980
REM DISCID 8A08FD0B
REM COMMENT “ExactAudioCopy v0.99pb5”
PERFORMER “The Police”
TITLE “Zenyatta Mondatta”
FILE “01 – Don’t Stand So Close to Me.wav” WAVE
TRACK 01 AUDIO
TITLE “Don’t Stand So Close to Me”
PERFORMER “The Police”
INDEX 01 00:00:00
TRACK 02 AUDIO
TITLE “Driven to Tears”
PERFORMER “The Police”
INDEX 00 04:02:50
FILE “02 – Driven to Tears.wav” WAVE
INDEX 01 00:00:00
FILE “03 – When the World Is Running Down, You Make the Best of What’s Still Around.wav” WAVE
TRACK 03 AUDIO
TITLE “When the World Is Running Down, You Make the Best of What’s Still Around”
PERFORMER “The Police”
INDEX 01 00:00:00
TRACK 04 AUDIO
TITLE “Canary in a Coalmine”
PERFORMER “The Police”
INDEX 00 03:36:50
FILE “04 – Canary in a Coalmine.wav” WAVE
INDEX 01 00:00:00
FILE “05 – Voices Inside My Head.wav” WAVE
TRACK 05 AUDIO
TITLE “Voices Inside My Head”
PERFORMER “The Police”
INDEX 01 00:00:00
FILE “06 – Bombs Away.wav” WAVE
TRACK 06 AUDIO
TITLE “Bombs Away”
PERFORMER “The Police”
INDEX 01 00:00:00
TRACK 07 AUDIO
TITLE “De Do Do Do, De Da Da Da”
PERFORMER “The Police”
INDEX 00 03:07:66
FILE “07 – De Do Do Do, De Da Da Da.wav” WAVE
INDEX 01 00:00:00
TRACK 08 AUDIO
TITLE “Behind My Camel”
PERFORMER “The Police”
INDEX 00 04:07:22
FILE “08 – Behind My Camel.wav” WAVE
INDEX 01 00:00:00
TRACK 09 AUDIO
TITLE “Man in a Suitcase”
PERFORMER “The Police”
INDEX 00 02:53:45
FILE “09 – Man in a Suitcase.wav” WAVE
INDEX 01 00:00:00
TRACK 10 AUDIO
TITLE “Shadows in the Rain”
PERFORMER “The Police”
INDEX 00 02:18:05
FILE “10 – Shadows in the Rain.wav” WAVE
INDEX 01 00:00:00
FILE “11 – The Other Way of Stopping.wav” WAVE
TRACK 11 AUDIO
TITLE “The Other Way of Stopping”
PERFORMER “The Police”
INDEX 01 00:00:00


Leave a Reply

Your email address will not be published. Required fields are marked *

This site uses Akismet to reduce spam. Learn how your comment data is processed.