The Police – Synchronicity




[Total: 0    Average: 0/5]

Artist: The Police
Year: 1983
Genre: Rock
Notes: Discogs
Add. Notes:
Cover incl.: Yes
Encoder: FLAC
Bitrate: ~700 kBit/s (44.1 kHz/16 Bit/s)
Log & Cue incl.: Yes
Size: 396,63 MB
Password: “slam” (without ” “)


All Downloads/Hosters are compatible

Download 1
NitroFlare.com
KatFile.com
Share-online.biz
Rapidgator.net
UploadRar.com
Download 2
NitroFlare.com
KatFile.com
Share-online.biz
Rapidgator.net
UploadRar.com

Tracklist:

1 - Syncronicity I - 3:23
2 - Walking In Your Footsteps - 3:36
3 - O My God - 4:02
4 - Mother - 3:05
5 - Miss Gradenko - 1:59
6 - Synchronicity II - 5:02
7 - Every Breath You Take - 4:13
8 - King Of Pain - 4:59
9 - Wrapped Around Your Finger - 5:13
10 - Tea In The Sahara - 4:19
11 - Murder By Numbers - 4:36

EAC-Log, CUE-Sheed & NFO:

Click to open spoiler
Exact Audio Copy V1.1 from 23. June 2015

EAC extraction logfile from 14. February 2016, 20:54

The Police / Synchronicity

Used drive : TSSTcorpCDDVDW SE-208DB Adapter: 1 ID: 0

Read mode : Secure
Utilize accurate stream : Yes
Defeat audio cache : Yes
Make use of C2 pointers : No

Read offset correction : 6
Overread into Lead-In and Lead-Out : No
Fill up missing offset samples with silence : Yes
Delete leading and trailing silent blocks : No
Null samples used in CRC calculations : Yes
Used interface : Native Win32 interface for Win NT & 2000
Gap handling : Appended to previous track

Used output format : User Defined Encoder
Selected bitrate : 1024 kBit/s
Quality : High
Add ID3 tag : No
Command line compressor : C:\Program Files (x86)\FLAC Frontend\tools\flac.exe
Additional command line options : -8 -V -T “ARTIST=%artist%” -T “TITLE=%title%” -T “ALBUM=%albumtitle%” -T “DATE=%year%” -T “TRACKNUMBER=%tracknr%” -T “TOTALTRACKS=%numtracks%” -T “GENRE=%genre%” -T “ALBUMARTIST=%albumartist%” -T “ALBUM ARTIST=%albumartist%” -T “COMMENT=EAC Secure Mode, Test & Copy, AccurateRip, FLAC -8” %source%

TOC of the extracted CD

Track | Start | Length | Start sector | End sector
———————————————————
1 | 0:00.32 | 3:22.55 | 32 | 15236
2 | 3:23.12 | 3:36.60 | 15237 | 31496
3 | 6:59.72 | 4:02.18 | 31497 | 49664
4 | 11:02.15 | 3:05.45 | 49665 | 63584
5 | 14:07.60 | 2:00.00 | 63585 | 72584
6 | 16:07.60 | 5:05.10 | 72585 | 95469
7 | 21:12.70 | 4:14.02 | 95470 | 114521
8 | 25:26.72 | 4:59.03 | 114522 | 136949
9 | 30:26.00 | 5:13.55 | 136950 | 160479
10 | 35:39.55 | 4:15.37 | 160480 | 179641
11 | 39:55.17 | 4:33.53 | 179642 | 200169

Track 1

Filename D:\_EAC\The Police – Synchronicity (1983) [FLAC] {A&M Records 393 735-2}\01 – Synchronicity I.wav

Pre-gap length 0:00:02.32

Peak level 86.6 %
Extraction speed 2.8 X
Track quality 100.0 %
Test CRC A75CFBDA
Copy CRC A75CFBDA
Accurately ripped (confidence 118) [4E91222D] (AR v2)
Copy OK

Track 2

Filename D:\_EAC\The Police – Synchronicity (1983) [FLAC] {A&M Records 393 735-2}\02 – Walking In Your Footsteps.wav

Peak level 62.4 %
Extraction speed 2.5 X
Track quality 99.9 %
Test CRC B5C0E7E9
Copy CRC B5C0E7E9
Accurately ripped (confidence 117) [FD718292] (AR v2)
Copy OK

Track 3

Filename D:\_EAC\The Police – Synchronicity (1983) [FLAC] {A&M Records 393 735-2}\03 – O My God.wav

Peak level 72.8 %
Extraction speed 3.4 X
Track quality 100.0 %
Test CRC E9A6566C
Copy CRC E9A6566C
Accurately ripped (confidence 117) [16820611] (AR v2)
Copy OK

Track 4

Filename D:\_EAC\The Police – Synchronicity (1983) [FLAC] {A&M Records 393 735-2}\04 – Mother.wav

Peak level 51.5 %
Extraction speed 2.7 X
Track quality 99.9 %
Test CRC 5C3F9B44
Copy CRC 5C3F9B44
Accurately ripped (confidence 117) [834ECF79] (AR v2)
Copy OK

Track 5

Filename D:\_EAC\The Police – Synchronicity (1983) [FLAC] {A&M Records 393 735-2}\05 – Miss Gradenko.wav

Peak level 71.4 %
Extraction speed 3.1 X
Track quality 100.0 %
Test CRC 26AE9DEC
Copy CRC 26AE9DEC
Accurately ripped (confidence 116) [234AA0A2] (AR v2)
Copy OK

Track 6

Filename D:\_EAC\The Police – Synchronicity (1983) [FLAC] {A&M Records 393 735-2}\06 – Synchronicity II.wav

Peak level 66.9 %
Extraction speed 3.4 X
Track quality 99.9 %
Test CRC 00B38C14
Copy CRC 00B38C14
Accurately ripped (confidence 116) [1D656796] (AR v2)
Copy OK

Track 7

Filename D:\_EAC\The Police – Synchronicity (1983) [FLAC] {A&M Records 393 735-2}\07 – Every Breath You Take.wav

Pre-gap length 0:00:04.08

Peak level 71.5 %
Extraction speed 4.2 X
Track quality 100.0 %
Test CRC 18393CD1
Copy CRC 18393CD1
Accurately ripped (confidence 117) [DD897409] (AR v2)
Copy OK

Track 8

Filename D:\_EAC\The Police – Synchronicity (1983) [FLAC] {A&M Records 393 735-2}\08 – King Of Pain.wav

Peak level 66.4 %
Extraction speed 4.5 X
Track quality 100.0 %
Test CRC 7ABCF4EC
Copy CRC 7ABCF4EC
Accurately ripped (confidence 117) [31F04F83] (AR v2)
Copy OK

Track 9

Filename D:\_EAC\The Police – Synchronicity (1983) [FLAC] {A&M Records 393 735-2}\09 – Wrapped Around Your Finger.wav

Peak level 71.6 %
Extraction speed 4.0 X
Track quality 99.9 %
Test CRC 6C456B09
Copy CRC 6C456B09
Accurately ripped (confidence 116) [2B0B3D68] (AR v2)
Copy OK

Track 10

Filename D:\_EAC\The Police – Synchronicity (1983) [FLAC] {A&M Records 393 735-2}\10 – Tea In The Sahara.wav

Peak level 65.8 %
Extraction speed 4.7 X
Track quality 100.0 %
Test CRC C7F05C2A
Copy CRC C7F05C2A
Accurately ripped (confidence 115) [AA6DAE0C] (AR v2)
Copy OK

Track 11

Filename D:\_EAC\The Police – Synchronicity (1983) [FLAC] {A&M Records 393 735-2}\11 – Murder By Numbers.wav

Pre-gap length 0:00:04.10

Peak level 84.7 %
Extraction speed 5.0 X
Track quality 100.0 %
Test CRC 89DD79C5
Copy CRC 89DD79C5
Accurately ripped (confidence 114) [958C0FD5] (AR v2)
Copy OK

All tracks accurately ripped

No errors occurred

End of status report

==== Log checksum 1153CBAC791FDE74CB88F6452F44D63D25423F9B491FAC199E8AB2DAC1A08315 ====

REM GENRE Rock
REM DATE 1983
REM DISCID 9B0A6C0B
REM COMMENT “ExactAudioCopy v1.1”
PERFORMER “The Police”
TITLE “Synchronicity”
FILE “01 – Synchronicity I.wav” WAVE
TRACK 01 AUDIO
TITLE “Synchronicity I”
PERFORMER “The Police”
PREGAP 00:00:32
INDEX 01 00:00:00
FILE “02 – Walking In Your Footsteps.wav” WAVE
TRACK 02 AUDIO
TITLE “Walking In Your Footsteps”
PERFORMER “The Police”
INDEX 01 00:00:00
FILE “03 – O My God.wav” WAVE
TRACK 03 AUDIO
TITLE “O My God”
PERFORMER “The Police”
INDEX 01 00:00:00
FILE “04 – Mother.wav” WAVE
TRACK 04 AUDIO
TITLE “Mother”
PERFORMER “The Police”
INDEX 01 00:00:00
FILE “05 – Miss Gradenko.wav” WAVE
TRACK 05 AUDIO
TITLE “Miss Gradenko”
PERFORMER “The Police”
INDEX 01 00:00:00
FILE “06 – Synchronicity II.wav” WAVE
TRACK 06 AUDIO
TITLE “Synchronicity II”
PERFORMER “The Police”
INDEX 01 00:00:00
TRACK 07 AUDIO
TITLE “Every Breath You Take”
PERFORMER “The Police”
INDEX 00 05:01:02
FILE “07 – Every Breath You Take.wav” WAVE
INDEX 01 00:00:00
FILE “08 – King Of Pain.wav” WAVE
TRACK 08 AUDIO
TITLE “King Of Pain”
PERFORMER “The Police”
INDEX 01 00:00:00
FILE “09 – Wrapped Around Your Finger.wav” WAVE
TRACK 09 AUDIO
TITLE “Wrapped Around Your Finger”
PERFORMER “The Police”
INDEX 01 00:00:00
FILE “10 – Tea In The Sahara.wav” WAVE
TRACK 10 AUDIO
TITLE “Tea In The Sahara”
PERFORMER “The Police”
INDEX 01 00:00:00
TRACK 11 AUDIO
TITLE “Murder By Numbers”
PERFORMER “The Police”
INDEX 00 04:11:27
FILE “11 – Murder By Numbers.wav” WAVE
INDEX 01 00:00:00


Spread the Download

Leave a Reply

Your email address will not be published. Required fields are marked *

Enter the text from the image below
 

This site uses Akismet to reduce spam. Learn how your comment data is processed.