The Police – Synchronicity (Remastered)




Artist: The Police
Year: 1983/2003
Genre: Rock
Notes: Discogs
Add. Notes: Remastered
Cover incl.: Yes
Encoder: FLAC
Bitrate: ~800 kBit/s (44.1 kHz/16 Bit/s)
Log & Cue incl.: Yes
Size: 286,75 MB
Password: “slam” (without ” “)


All Downloads/Hosters are compatible

Download 1
Turbobit.net
Rapidgator.net
KatFile.com
UploadRar.com
Download 2
Turbobit.net
Rapidgator.net
KatFile.com
UploadRar.com

Tracklist:

1 - Syncronicity I - 3:23
2 - Walking In Your Footsteps - 3:36
3 - O My God - 4:02
4 - Mother - 3:05
5 - Miss Gradenko - 1:59
6 - Synchronicity II - 5:02
7 - Every Breath You Take - 4:13
8 - King Of Pain - 4:59
9 - Wrapped Around Your Finger - 5:13
10 - Tea In The Sahara - 4:19
11 - Murder By Numbers - 4:36

EAC-Log, CUE-Sheed & NFO:

Click to open spoiler
Exact Audio Copy V0.99 prebeta 5 from 4. May 2009

EAC extraction logfile from 24. October 2009, 15:05

The Police / Synchronicity

Used drive : ASUS DRW-2014L1 Adapter: 0 ID: 0

Read mode : Secure
Utilize accurate stream : Yes
Defeat audio cache : Yes
Make use of C2 pointers : No

Read offset correction : 6
Overread into Lead-In and Lead-Out : No
Fill up missing offset samples with silence : Yes
Delete leading and trailing silent blocks : No
Null samples used in CRC calculations : Yes
Used interface : Native Win32 interface for Win NT & 2000
Gap handling : Appended to previous track

Used output format : User Defined Encoder
Selected bitrate : 1024 kBit/s
Quality : High
Add ID3 tag : No
Command line compressor : C:\Program Files\Exact Audio Copy\FLAC\FLAC.EXE
Additional command line options : -8 -V -T “ARTIST=%a” -T “TITLE=%t” -T “ALBUM=%g” -T “DATE=%y” -T “TRACKNUMBER=%n” -T “GENRE=%m” -T “COMMENT=EAC FLAC -8” %s

TOC of the extracted CD

Track | Start | Length | Start sector | End sector
———————————————————
1 | 0:00.00 | 3:23.00 | 0 | 15224
2 | 3:23.00 | 3:36.60 | 15225 | 31484
3 | 6:59.60 | 4:02.21 | 31485 | 49655
4 | 11:02.06 | 3:05.43 | 49656 | 63573
5 | 14:07.49 | 1:59.71 | 63574 | 72569
6 | 16:07.45 | 5:02.28 | 72570 | 95247
7 | 21:09.73 | 4:13.69 | 95248 | 114291
8 | 25:23.67 | 4:59.03 | 114292 | 136719
9 | 30:22.70 | 5:13.53 | 136720 | 160247
10 | 35:36.48 | 4:19.37 | 160248 | 179709
11 | 39:56.10 | 4:36.10 | 179710 | 200419

Track 1

Filename C:\The Police – Synchronicity (1983) [FLAC] {A&M Records 069 493 599-2}\01 – Synchronicity I.wav

Pre-gap length 0:00:02.00

Peak level 98.8 %
Track quality 100.0 %
Test CRC D4A580F3
Copy CRC D4A580F3
Accurately ripped (confidence 79) [5E0DC68F]
Copy OK

Track 2

Filename C:\The Police – Synchronicity (1983) [FLAC] {A&M Records 069 493 599-2}\02 – Walking In Your Footsteps.wav

Peak level 98.8 %
Track quality 99.9 %
Test CRC 1D82783E
Copy CRC 1D82783E
Accurately ripped (confidence 80) [AD234AC1]
Copy OK

Track 3

Filename C:\The Police – Synchronicity (1983) [FLAC] {A&M Records 069 493 599-2}\03 – O My God.wav

Peak level 98.8 %
Track quality 100.0 %
Test CRC 7C67432A
Copy CRC 7C67432A
Accurately ripped (confidence 81) [F85FE1F9]
Copy OK

Track 4

Filename C:\The Police – Synchronicity (1983) [FLAC] {A&M Records 069 493 599-2}\04 – Mother.wav

Peak level 96.6 %
Track quality 100.0 %
Test CRC 5D9E2718
Copy CRC 5D9E2718
Accurately ripped (confidence 81) [874B3D13]
Copy OK

Track 5

Filename C:\The Police – Synchronicity (1983) [FLAC] {A&M Records 069 493 599-2}\05 – Miss Gradenko.wav

Peak level 98.8 %
Track quality 100.0 %
Test CRC 60ED4B48
Copy CRC 60ED4B48
Accurately ripped (confidence 81) [ED846EE0]
Copy OK

Track 6

Filename C:\The Police – Synchronicity (1983) [FLAC] {A&M Records 069 493 599-2}\06 – Synchronicity II.wav

Peak level 98.8 %
Track quality 100.0 %
Test CRC 3D97DE97
Copy CRC 3D97DE97
Accurately ripped (confidence 80) [9F975910]
Copy OK

Track 7

Filename C:\The Police – Synchronicity (1983) [FLAC] {A&M Records 069 493 599-2}\07 – Every Breath You Take.wav

Pre-gap length 0:00:01.68

Peak level 98.8 %
Track quality 100.0 %
Test CRC 7635BE87
Copy CRC 7635BE87
Accurately ripped (confidence 80) [F55BB269]
Copy OK

Track 8

Filename C:\The Police – Synchronicity (1983) [FLAC] {A&M Records 069 493 599-2}\08 – King Of Pain.wav

Peak level 98.8 %
Track quality 100.0 %
Test CRC 508B82AC
Copy CRC 508B82AC
Accurately ripped (confidence 80) [F1BB786C]
Copy OK

Track 9

Filename C:\The Police – Synchronicity (1983) [FLAC] {A&M Records 069 493 599-2}\09 – Wrapped Around Your Finger.wav

Peak level 98.8 %
Track quality 100.0 %
Test CRC F2F41F16
Copy CRC F2F41F16
Accurately ripped (confidence 81) [A98AB135]
Copy OK

Track 10

Filename C:\The Police – Synchronicity (1983) [FLAC] {A&M Records 069 493 599-2}\10 – Tea In The Sahara.wav

Peak level 98.8 %
Track quality 100.0 %
Test CRC BF75860D
Copy CRC BF75860D
Accurately ripped (confidence 80) [169B3410]
Copy OK

Track 11

Filename C:\The Police – Synchronicity (1983) [FLAC] {A&M Records 069 493 599-2}\11 – Murder By Numbers.wav

Peak level 98.8 %
Track quality 100.0 %
Test CRC F685CCEF
Copy CRC F685CCEF
Accurately ripped (confidence 78) [5C952C7D]
Copy OK

All tracks accurately ripped

No errors occurred

End of status report

REM GENRE Rock
REM DATE 1983
REM DISCID 980A700B
REM COMMENT “ExactAudioCopy v0.99pb5”
PERFORMER “The Police”
TITLE “Synchronicity”
FILE “01 – Synchronicity I.wav” WAVE
TRACK 01 AUDIO
TITLE “Synchronicity I”
PERFORMER “The Police”
INDEX 01 00:00:00
FILE “02 – Walking In Your Footsteps.wav” WAVE
TRACK 02 AUDIO
TITLE “Walking In Your Footsteps”
PERFORMER “The Police”
INDEX 01 00:00:00
FILE “03 – O My God.wav” WAVE
TRACK 03 AUDIO
TITLE “O My God”
PERFORMER “The Police”
INDEX 01 00:00:00
FILE “04 – Mother.wav” WAVE
TRACK 04 AUDIO
TITLE “Mother”
PERFORMER “The Police”
INDEX 01 00:00:00
FILE “05 – Miss Gradenko.wav” WAVE
TRACK 05 AUDIO
TITLE “Miss Gradenko”
PERFORMER “The Police”
INDEX 01 00:00:00
FILE “06 – Synchronicity II.wav” WAVE
TRACK 06 AUDIO
TITLE “Synchronicity II”
PERFORMER “The Police”
INDEX 01 00:00:00
TRACK 07 AUDIO
TITLE “Every Breath You Take”
PERFORMER “The Police”
INDEX 00 05:00:35
FILE “07 – Every Breath You Take.wav” WAVE
INDEX 01 00:00:00
FILE “08 – King Of Pain.wav” WAVE
TRACK 08 AUDIO
TITLE “King Of Pain”
PERFORMER “The Police”
INDEX 01 00:00:00
FILE “09 – Wrapped Around Your Finger.wav” WAVE
TRACK 09 AUDIO
TITLE “Wrapped Around Your Finger”
PERFORMER “The Police”
INDEX 01 00:00:00
FILE “10 – Tea In The Sahara.wav” WAVE
TRACK 10 AUDIO
TITLE “Tea In The Sahara”
PERFORMER “The Police”
INDEX 01 00:00:00
FILE “11 – Murder By Numbers.wav” WAVE
TRACK 11 AUDIO
TITLE “Murder By Numbers”
PERFORMER “The Police”
INDEX 01 00:00:00


Leave a Reply

Your email address will not be published. Required fields are marked *

Enter the text from the image below
 

This site uses Akismet to reduce spam. Learn how your comment data is processed.