The Police – Reggatta de Blanc (Remastered)




Artist: The Police
Year: 1979/1985
Genre: Rock
Notes: Discogs
Add. Notes: Remastered
Cover incl.: Yes
Encoder: FLAC
Bitrate: ~1000 kBit/s (44.1 kHz/16 Bit/s)
Log & Cue incl.: Yes
Size: 395,55 MB
Password: “slam” (without ” “)


All Downloads/Hosters are compatible

Download 1
Turbobit.net
Rapidgator.net
UploadByte.com
UploadEver.com
JustUpload.io
Download 2
Turbobit.net
Rapidgator.net
UploadByte.com
UploadEver.com
JustUpload.io
Download 3
Turbobit.net
Rapidgator.net
UploadByte.com
UploadEver.com
JustUpload.io

Tracklist:

1 - Message In A Bottle - 4:49
2 - Reggatta De Blanc - 3:14
3 - It's Alright For You - 3:05
4 - Bring On The Night - 4:16
5 - Deathwish - 4:13
6 - Walking On The Moon - 4:59
7 - On Any Other Day - 2:56
8 - The Bed's Too Big Without You - 4:24
9 - Contact - 2:39
10 - Does Everyone Stare - 3:49
11 - No Time This Time - 3:18

EAC-Log, CUE-Sheed & NFO:

Click to open spoiler
Exact Audio Copy V1.1 from 23. June 2015

EAC extraction logfile from 10. January 2016, 16:06

The Police / Reggatta de Blanc

Used drive : TSSTcorpCDDVDW SE-208DB Adapter: 7 ID: 0

Read mode : Secure
Utilize accurate stream : Yes
Defeat audio cache : Yes
Make use of C2 pointers : No

Read offset correction : 6
Overread into Lead-In and Lead-Out : No
Fill up missing offset samples with silence : Yes
Delete leading and trailing silent blocks : No
Null samples used in CRC calculations : Yes
Used interface : Installed external ASPI interface
Gap handling : Appended to previous track

Used output format : User Defined Encoder
Selected bitrate : 1024 kBit/s
Quality : High
Add ID3 tag : No
Command line compressor : C:\Program Files (x86)\FLAC Frontend\tools\flac.exe
Additional command line options : -8 -V -T “ARTIST=%artist%” -T “TITLE=%title%” -T “ALBUM=%albumtitle%” -T “DATE=%year%” -T “TRACKNUMBER=%tracknr%” -T “TOTALTRACKS=%numtracks%” -T “GENRE=%genre%” -T “ALBUMARTIST=%albumartist%” -T “ALBUM ARTIST=%albumartist%” -T “COMMENT=EAC Secure Mode, Test & Copy, AccurateRip, FLAC -8” %source%

TOC of the extracted CD

Track | Start | Length | Start sector | End sector
———————————————————
1 | 0:00.33 | 4:52.42 | 33 | 21974
2 | 4:53.00 | 3:07.33 | 21975 | 36032
3 | 8:00.33 | 3:14.50 | 36033 | 50632
4 | 11:15.08 | 4:17.45 | 50633 | 69952
5 | 15:32.53 | 4:16.15 | 69953 | 89167
6 | 19:48.68 | 5:04.55 | 89168 | 112022
7 | 24:53.48 | 2:58.10 | 112023 | 125382
8 | 27:51.58 | 4:28.15 | 125383 | 145497
9 | 32:19.73 | 2:39.45 | 145498 | 157467
10 | 34:59.43 | 3:47.45 | 157468 | 174537
11 | 38:47.13 | 3:18.40 | 174538 | 189427

Track 1

Filename M:\_EAC\The Police – Reggatta de Blanc (1979) [FLAC] {A&M Records 394 792-2}\01 – Message In A Bottle.wav

Pre-gap length 0:00:02.33

Peak level 99.8 %
Extraction speed 1.0 X
Track quality 100.0 %
Test CRC 3A2D8733
Copy CRC 3A2D8733
Accurately ripped (confidence 200) [43E30F10] (AR v2)
Copy OK

Track 2

Filename M:\_EAC\The Police – Reggatta de Blanc (1979) [FLAC] {A&M Records 394 792-2}\02 – Reggatta De Blanc.wav

Pre-gap length 0:00:01.30

Peak level 97.5 %
Extraction speed 1.0 X
Track quality 100.0 %
Test CRC FA82BFA5
Copy CRC FA82BFA5
Accurately ripped (confidence 200) [2AFC73F5] (AR v2)
Copy OK

Track 3

Filename M:\_EAC\The Police – Reggatta de Blanc (1979) [FLAC] {A&M Records 394 792-2}\03 – It’s Alright For You.wav

Pre-gap length 0:00:01.38

Peak level 100.0 %
Extraction speed 1.1 X
Track quality 100.0 %
Test CRC 57DBCB7B
Copy CRC 57DBCB7B
Accurately ripped (confidence 200) [57434872] (AR v2)
Copy OK

Track 4

Filename M:\_EAC\The Police – Reggatta de Blanc (1979) [FLAC] {A&M Records 394 792-2}\04 – Bring On The Night.wav

Pre-gap length 0:00:01.40

Peak level 100.0 %
Extraction speed 1.1 X
Track quality 99.9 %
Test CRC FA3D3142
Copy CRC FA3D3142
Accurately ripped (confidence 200) [3EE470A2] (AR v2)
Copy OK

Track 5

Filename M:\_EAC\The Police – Reggatta de Blanc (1979) [FLAC] {A&M Records 394 792-2}\05 – Deathwish.wav

Pre-gap length 0:00:01.68

Peak level 100.0 %
Extraction speed 1.3 X
Track quality 100.0 %
Test CRC 2441F97D
Copy CRC 2441F97D
Accurately ripped (confidence 200) [9B38D858] (AR v2)
Copy OK

Track 6

Filename M:\_EAC\The Police – Reggatta de Blanc (1979) [FLAC] {A&M Records 394 792-2}\06 – Walking On The Moon.wav

Pre-gap length 0:00:02.20

Peak level 100.0 %
Extraction speed 1.4 X
Track quality 100.0 %
Test CRC 3351D12A
Copy CRC 3351D12A
Accurately ripped (confidence 200) [871BD416] (AR v2)
Copy OK

Track 7

Filename M:\_EAC\The Police – Reggatta de Blanc (1979) [FLAC] {A&M Records 394 792-2}\07 – On Any Other Day.wav

Pre-gap length 0:00:02.00

Peak level 100.0 %
Extraction speed 1.3 X
Track quality 100.0 %
Test CRC 2D0A0AB2
Copy CRC 2D0A0AB2
Accurately ripped (confidence 200) [3B13480B] (AR v2)
Copy OK

Track 8

Filename M:\_EAC\The Police – Reggatta de Blanc (1979) [FLAC] {A&M Records 394 792-2}\08 – The Bed’s Too Big Without You.wav

Peak level 88.7 %
Extraction speed 1.5 X
Track quality 100.0 %
Test CRC 88F49B92
Copy CRC 88F49B92
Accurately ripped (confidence 200) [6232D426] (AR v2)
Copy OK

Track 9

Filename M:\_EAC\The Police – Reggatta de Blanc (1979) [FLAC] {A&M Records 394 792-2}\09 – Contact.wav

Pre-gap length 0:00:02.15

Peak level 97.1 %
Extraction speed 1.4 X
Track quality 100.0 %
Test CRC C4472247
Copy CRC C4472247
Accurately ripped (confidence 200) [FEA8C778] (AR v2)
Copy OK

Track 10

Filename M:\_EAC\The Police – Reggatta de Blanc (1979) [FLAC] {A&M Records 394 792-2}\10 – Does Everyone Stare.wav

Pre-gap length 0:00:01.25

Peak level 88.4 %
Extraction speed 1.5 X
Track quality 100.0 %
Test CRC 2BABA3E0
Copy CRC 2BABA3E0
Accurately ripped (confidence 200) [2DC63C31] (AR v2)
Copy OK

Track 11

Filename M:\_EAC\The Police – Reggatta de Blanc (1979) [FLAC] {A&M Records 394 792-2}\11 – No Time This Time.wav

Pre-gap length 0:00:02.05

Peak level 82.5 %
Extraction speed 1.3 X
Track quality 99.9 %
Test CRC ACEB81CF
Copy CRC ACEB81CF
Accurately ripped (confidence 200) [8F882DA7] (AR v2)
Copy OK

All tracks accurately ripped

No errors occurred

End of status report

==== Log checksum 1842B50984DE201A83E807F38994DC17FC33C064207D50F15E77BD9004EAAB49 ====

REM GENRE “New Wave”
REM DATE 1979
REM DISCID 9609DD0B
REM COMMENT “ExactAudioCopy v1.1”
PERFORMER “The Police”
TITLE “Reggatta de Blanc”
FILE “01 – Message In A Bottle.wav” WAVE
TRACK 01 AUDIO
TITLE “Message In A Bottle”
PERFORMER “The Police”
PREGAP 00:00:33
INDEX 01 00:00:00
TRACK 02 AUDIO
TITLE “Reggatta De Blanc”
PERFORMER “The Police”
INDEX 00 04:51:12
FILE “02 – Reggatta De Blanc.wav” WAVE
INDEX 01 00:00:00
TRACK 03 AUDIO
TITLE “It’s Alright For You”
PERFORMER “The Police”
INDEX 00 03:05:70
FILE “03 – It’s Alright For You.wav” WAVE
INDEX 01 00:00:00
TRACK 04 AUDIO
TITLE “Bring On The Night”
PERFORMER “The Police”
INDEX 00 03:13:10
FILE “04 – Bring On The Night.wav” WAVE
INDEX 01 00:00:00
TRACK 05 AUDIO
TITLE “Deathwish”
PERFORMER “The Police”
INDEX 00 04:15:52
FILE “05 – Deathwish.wav” WAVE
INDEX 01 00:00:00
TRACK 06 AUDIO
TITLE “Walking On The Moon”
PERFORMER “The Police”
INDEX 00 04:13:70
FILE “06 – Walking On The Moon.wav” WAVE
INDEX 01 00:00:00
TRACK 07 AUDIO
TITLE “On Any Other Day”
PERFORMER “The Police”
INDEX 00 05:02:55
FILE “07 – On Any Other Day.wav” WAVE
INDEX 01 00:00:00
FILE “08 – The Bed’s Too Big Without You.wav” WAVE
TRACK 08 AUDIO
TITLE “The Bed’s Too Big Without You”
PERFORMER “The Police”
INDEX 01 00:00:00
TRACK 09 AUDIO
TITLE “Contact”
PERFORMER “The Police”
INDEX 00 04:26:00
FILE “09 – Contact.wav” WAVE
INDEX 01 00:00:00
TRACK 10 AUDIO
TITLE “Does Everyone Stare”
PERFORMER “The Police”
INDEX 00 02:38:20
FILE “10 – Does Everyone Stare.wav” WAVE
INDEX 01 00:00:00
TRACK 11 AUDIO
TITLE “No Time This Time”
PERFORMER “The Police”
INDEX 00 03:45:40
FILE “11 – No Time This Time.wav” WAVE
INDEX 01 00:00:00

Leave a Reply

Your email address will not be published. Required fields are marked *

Enter the text from the image below
 

This site uses Akismet to reduce spam. Learn how your comment data is processed.