The Police – Outlandos D’Amour (Remastered)




Artist: The Police
Year: 1978/2003
Genre: Rock
Notes: Discogs
Add. Notes: Remastered
Cover incl.: Yes
Encoder: FLAC
Bitrate: ~900 kBit/s (44.1 kHz/16 Bit/s)
Log & Cue incl.: Yes
Size: 285,47 MB
Password: “slam” (without ” “)


All Downloads/Hosters are compatible

Download 1
Turbobit.net
Rapidgator.net
KatFile.com
UploadRar.com
Download 2
Turbobit.net
Rapidgator.net
KatFile.com
UploadRar.com

Tracklist:

1. Next To You
2. So Lonely
3. Roxanne
4. Hole In My Life
5. Peanuts
6. Can't Stand Losing You
7. Truth Hits Everybody
8. Born In The 50's
9. Be My Girl - Sally
10. Masoko Tanga

EAC-Log, CUE-Sheed & NFO:

Click to open spoiler
Exact Audio Copy V0.99 prebeta 5 from 4. May 2009

EAC extraction logfile from 24. October 2009, 13:49

The Police / Outlandos D’Amour

Used drive : ASUS DRW-2014L1 Adapter: 0 ID: 0

Read mode : Secure
Utilize accurate stream : Yes
Defeat audio cache : Yes
Make use of C2 pointers : No

Read offset correction : 6
Overread into Lead-In and Lead-Out : No
Fill up missing offset samples with silence : Yes
Delete leading and trailing silent blocks : No
Null samples used in CRC calculations : Yes
Used interface : Native Win32 interface for Win NT & 2000
Gap handling : Appended to previous track

Used output format : User Defined Encoder
Selected bitrate : 1024 kBit/s
Quality : High
Add ID3 tag : No
Command line compressor : C:\Program Files\Exact Audio Copy\FLAC\FLAC.EXE
Additional command line options : -8 -V -T “ARTIST=%a” -T “TITLE=%t” -T “ALBUM=%g” -T “DATE=%y” -T “TRACKNUMBER=%n” -T “GENRE=%m” -T “COMMENT=EAC FLAC -8” %s

TOC of the extracted CD

Track | Start | Length | Start sector | End sector
———————————————————
1 | 0:00.00 | 2:51.73 | 0 | 12897
2 | 2:51.73 | 4:49.44 | 12898 | 34616
3 | 7:41.42 | 3:13.51 | 34617 | 49142
4 | 10:55.18 | 4:50.07 | 49143 | 70899
5 | 15:45.25 | 3:54.60 | 70900 | 88509
6 | 19:40.10 | 2:59.68 | 88510 | 102002
7 | 22:40.03 | 2:54.72 | 102003 | 115124
8 | 25:35.00 | 3:45.00 | 115125 | 131999
9 | 29:20.00 | 3:24.00 | 132000 | 147299
10 | 32:44.00 | 5:42.20 | 147300 | 172969

Track 1

Filename C:\The Police – Outlandos D’Amour (1978) [FLAC] {A&M Records 069 493 595-2}\01 – Next To You.wav

Pre-gap length 0:00:02.00

Peak level 98.8 %
Track quality 100.0 %
Test CRC 9F09CA11
Copy CRC 9F09CA11
Accurately ripped (confidence 13) [2DFABDCD]
Copy OK

Track 2

Filename C:\The Police – Outlandos D’Amour (1978) [FLAC] {A&M Records 069 493 595-2}\02 – So Lonely.wav

Peak level 98.8 %
Track quality 100.0 %
Test CRC CC4B59EB
Copy CRC CC4B59EB
Accurately ripped (confidence 13) [CCDA6C18]
Copy OK

Track 3

Filename C:\The Police – Outlandos D’Amour (1978) [FLAC] {A&M Records 069 493 595-2}\03 – Roxanne.wav

Peak level 98.8 %
Track quality 100.0 %
Test CRC A4217268
Copy CRC A4217268
Accurately ripped (confidence 13) [D7BEF4BC]
Copy OK

Track 4

Filename C:\The Police – Outlandos D’Amour (1978) [FLAC] {A&M Records 069 493 595-2}\04 – Hole In My Life.wav

Pre-gap length 0:00:01.55

Peak level 98.8 %
Track quality 100.0 %
Test CRC A5FD07C6
Copy CRC A5FD07C6
Accurately ripped (confidence 13) [24A31E48]
Copy OK

Track 5

Filename C:\The Police – Outlandos D’Amour (1978) [FLAC] {A&M Records 069 493 595-2}\05 – Peanuts.wav

Peak level 98.8 %
Track quality 100.0 %
Test CRC 0B7888A9
Copy CRC 0B7888A9
Accurately ripped (confidence 13) [F274E6EE]
Copy OK

Track 6

Filename C:\The Police – Outlandos D’Amour (1978) [FLAC] {A&M Records 069 493 595-2}\06 – Can’t Stand Losing You.wav

Peak level 98.8 %
Track quality 100.0 %
Test CRC A24349E5
Copy CRC A24349E5
Accurately ripped (confidence 13) [82CDA7D9]
Copy OK

Track 7

Filename C:\The Police – Outlandos D’Amour (1978) [FLAC] {A&M Records 069 493 595-2}\07 – Truth Hits Everybody.wav

Pre-gap length 0:00:01.11

Peak level 98.8 %
Track quality 99.9 %
Test CRC 6C52FA81
Copy CRC 6C52FA81
Accurately ripped (confidence 13) [7DD509B3]
Copy OK

Track 8

Filename C:\The Police – Outlandos D’Amour (1978) [FLAC] {A&M Records 069 493 595-2}\08 – Born In The 50’s.wav

Peak level 98.8 %
Track quality 100.0 %
Test CRC 6F69BAE4
Copy CRC 6F69BAE4
Accurately ripped (confidence 13) [20B81BD8]
Copy OK

Track 9

Filename C:\The Police – Outlandos D’Amour (1978) [FLAC] {A&M Records 069 493 595-2}\09 – Be My Girl – Sally.wav

Pre-gap length 0:00:02.40

Peak level 98.8 %
Track quality 100.0 %
Test CRC 77D3144B
Copy CRC 77D3144B
Accurately ripped (confidence 13) [2E83672A]
Copy OK

Track 10

Filename C:\The Police – Outlandos D’Amour (1978) [FLAC] {A&M Records 069 493 595-2}\10 – Masoko Tanga.wav

Peak level 98.8 %
Track quality 100.0 %
Test CRC 03A5887E
Copy CRC 03A5887E
Accurately ripped (confidence 13) [6036F6F3]
Copy OK

All tracks accurately ripped

No errors occurred

End of status report

REM GENRE Rock
REM DATE 1978
REM DISCID 8E09020A
REM COMMENT “ExactAudioCopy v0.99pb5”
PERFORMER “The Police”
TITLE “Outlandos D’Amour”
FILE “01 – Next To You.wav” WAVE
TRACK 01 AUDIO
TITLE “Next To You”
PERFORMER “The Police”
INDEX 01 00:00:00
FILE “02 – So Lonely.wav” WAVE
TRACK 02 AUDIO
TITLE “So Lonely”
PERFORMER “The Police”
INDEX 01 00:00:00
FILE “03 – Roxanne.wav” WAVE
TRACK 03 AUDIO
TITLE “Roxanne”
PERFORMER “The Police”
INDEX 01 00:00:00
TRACK 04 AUDIO
TITLE “Hole In My Life”
PERFORMER “The Police”
INDEX 00 03:11:71
FILE “04 – Hole In My Life.wav” WAVE
INDEX 01 00:00:00
FILE “05 – Peanuts.wav” WAVE
TRACK 05 AUDIO
TITLE “Peanuts”
PERFORMER “The Police”
INDEX 01 00:00:00
FILE “06 – Can’t Stand Losing You.wav” WAVE
TRACK 06 AUDIO
TITLE “Can’t Stand Losing You”
PERFORMER “The Police”
INDEX 01 00:00:00
TRACK 07 AUDIO
TITLE “Truth Hits Everybody”
PERFORMER “The Police”
INDEX 00 02:58:57
FILE “07 – Truth Hits Everybody.wav” WAVE
INDEX 01 00:00:00
FILE “08 – Born In The 50’s.wav” WAVE
TRACK 08 AUDIO
TITLE “Born In The 50’s”
PERFORMER “The Police”
INDEX 01 00:00:00
TRACK 09 AUDIO
TITLE “Be My Girl – Sally”
PERFORMER “The Police”
INDEX 00 03:42:35
FILE “09 – Be My Girl – Sally.wav” WAVE
INDEX 01 00:00:00
FILE “10 – Masoko Tanga.wav” WAVE
TRACK 10 AUDIO
TITLE “Masoko Tanga”
PERFORMER “The Police”
INDEX 01 00:00:00


Leave a Reply

Your email address will not be published. Required fields are marked *

This site uses Akismet to reduce spam. Learn how your comment data is processed.