The Police – Ghost In The Machine




Artist: The Police
Year: 1981/1983
Genre: Rock
Notes: Discogs
Add. Notes:
Cover incl.: Yes
Encoder: FLAC
Bitrate: ~1000 kBit/s (44.1 kHz/16 Bit/s)
Log & Cue incl.: Yes
Size: 427,16 MB
Password: “slam” (without ” “)


All Downloads/Hosters are compatible

Download 1
Turbobit.net
Rapidgator.net
KatFile.com
UploadRar.com
Download 2
Turbobit.net
Rapidgator.net
KatFile.com
UploadRar.com
Download 3
Turbobit.net
Rapidgator.net
KatFile.com
UploadRar.com

Tracklist:

1 - Spirits In The Material World - 2:59
2 - Every Little Thing She Does Is Magic - 4:20
3 - Invisible Sun - 3:44
4 - Hungry For You (J'aurais Toujours Faim De Toi) - 2:52
5 - Demolition Man - 5:57
6 - Too Much Information - 3:42
7 - Rehumanize Yourself - 3:10
8 - One World (Not Three) - 4:46
9 - Omegaman - 2:47
10 - Secret Journey - 3:33
11 - Darkness - 3:13

EAC-Log, CUE-Sheed & NFO:

Click to open spoiler
Exact Audio Copy V1.1 from 23. June 2015

EAC extraction logfile from 4. February 2016, 17:43

The Police / Ghost In The Machine

Used drive : TSSTcorpCDDVDW SE-208DB Adapter: 1 ID: 0

Read mode : Secure
Utilize accurate stream : Yes
Defeat audio cache : Yes
Make use of C2 pointers : No

Read offset correction : 6
Overread into Lead-In and Lead-Out : No
Fill up missing offset samples with silence : Yes
Delete leading and trailing silent blocks : No
Null samples used in CRC calculations : Yes
Used interface : Native Win32 interface for Win NT & 2000
Gap handling : Appended to previous track

Used output format : User Defined Encoder
Selected bitrate : 1024 kBit/s
Quality : High
Add ID3 tag : No
Command line compressor : C:\Program Files (x86)\FLAC Frontend\tools\flac.exe
Additional command line options : -8 -V -T “ARTIST=%artist%” -T “TITLE=%title%” -T “ALBUM=%albumtitle%” -T “DATE=%year%” -T “TRACKNUMBER=%tracknr%” -T “TOTALTRACKS=%numtracks%” -T “GENRE=%genre%” -T “ALBUMARTIST=%albumartist%” -T “ALBUM ARTIST=%albumartist%” -T “COMMENT=EAC Secure Mode, Test & Copy, AccurateRip, FLAC -8” %source%

TOC of the extracted CD

Track | Start | Length | Start sector | End sector
———————————————————
1 | 0:00.32 | 2:58.73 | 32 | 13454
2 | 2:59.30 | 4:20.52 | 13455 | 33006
3 | 7:20.07 | 3:44.10 | 33007 | 49816
4 | 11:04.17 | 2:52.65 | 49817 | 62781
5 | 13:57.07 | 5:55.18 | 62782 | 89424
6 | 19:52.25 | 3:42.55 | 89425 | 106129
7 | 23:35.05 | 3:10.35 | 106130 | 120414
8 | 26:45.40 | 4:46.42 | 120415 | 141906
9 | 31:32.07 | 2:47.60 | 141907 | 154491
10 | 34:19.67 | 3:33.58 | 154492 | 170524
11 | 37:53.50 | 3:15.07 | 170525 | 185156

Track 1

Filename D:\_EAC\The Police – Ghost In The Machine (1981) [FLAC] {A&M Records 393 730-2}\01 – Spirits In The Material World.wav

Pre-gap length 0:00:02.32

Peak level 100.0 %
Extraction speed 0.8 X
Track quality 99.9 %
Test CRC 4F8F5489
Copy CRC 4F8F5489
Accurately ripped (confidence 171) [EFFD2D2D] (AR v2)
Copy OK

Track 2

Filename D:\_EAC\The Police – Ghost In The Machine (1981) [FLAC] {A&M Records 393 730-2}\02 – Every Little Thing She Does Is Magic.wav

Peak level 100.0 %
Extraction speed 1.1 X
Track quality 100.0 %
Test CRC 4E0DA098
Copy CRC 4E0DA098
Accurately ripped (confidence 172) [15ADDD19] (AR v2)
Copy OK

Track 3

Filename D:\_EAC\The Police – Ghost In The Machine (1981) [FLAC] {A&M Records 393 730-2}\03 – Invisible Sun.wav

Pre-gap length 0:00:00.25

Peak level 100.0 %
Extraction speed 1.1 X
Track quality 100.0 %
Test CRC 5F67F3F2
Copy CRC 5F67F3F2
Accurately ripped (confidence 170) [D8308C66] (AR v2)
Copy OK

Track 4

Filename D:\_EAC\The Police – Ghost In The Machine (1981) [FLAC] {A&M Records 393 730-2}\04 – Hungry For You (J’Aurais Toujours Faim De Toi).wav

Peak level 100.0 %
Extraction speed 1.1 X
Track quality 100.0 %
Test CRC F2E98E33
Copy CRC F2E98E33
Accurately ripped (confidence 171) [3980A2C8] (AR v2)
Copy OK

Track 5

Filename D:\_EAC\The Police – Ghost In The Machine (1981) [FLAC] {A&M Records 393 730-2}\05 – Demolition Man.wav

Pre-gap length 0:00:00.50

Peak level 100.0 %
Extraction speed 1.2 X
Track quality 99.9 %
Test CRC 9613EFC3
Copy CRC 9613EFC3
Accurately ripped (confidence 169) [F0AF5E00] (AR v2)
Copy OK

Track 6

Filename D:\_EAC\The Police – Ghost In The Machine (1981) [FLAC] {A&M Records 393 730-2}\06 – Too Much Information.wav

Pre-gap length 0:00:00.15

Peak level 100.0 %
Extraction speed 1.2 X
Track quality 99.9 %
Test CRC 8F0A597A
Copy CRC 8F0A597A
Accurately ripped (confidence 169) [776FC0AB] (AR v2)
Copy OK

Track 7

Filename D:\_EAC\The Police – Ghost In The Machine (1981) [FLAC] {A&M Records 393 730-2}\07 – Rehumanize Yourself.wav

Pre-gap length 0:00:00.35

Peak level 100.0 %
Extraction speed 1.4 X
Track quality 100.0 %
Test CRC B51C1ACB
Copy CRC B51C1ACB
Accurately ripped (confidence 170) [A4B26E2E] (AR v2)
Copy OK

Track 8

Filename D:\_EAC\The Police – Ghost In The Machine (1981) [FLAC] {A&M Records 393 730-2}\08 – One World (Not Three).wav

Pre-gap length 0:00:00.20

Peak level 83.1 %
Extraction speed 1.5 X
Track quality 100.0 %
Test CRC 72C91384
Copy CRC 72C91384
Accurately ripped (confidence 169) [C0F445E1] (AR v2)
Copy OK

Track 9

Filename D:\_EAC\The Police – Ghost In The Machine (1981) [FLAC] {A&M Records 393 730-2}\09 – Omegaman.wav

Peak level 89.2 %
Extraction speed 1.4 X
Track quality 100.0 %
Test CRC 81ACBC8F
Copy CRC 81ACBC8F
Accurately ripped (confidence 169) [07B27DC9] (AR v2)
Copy OK

Track 10

Filename D:\_EAC\The Police – Ghost In The Machine (1981) [FLAC] {A&M Records 393 730-2}\10 – Secret Journey.wav

Pre-gap length 0:00:00.72

Peak level 100.0 %
Extraction speed 1.3 X
Track quality 99.9 %
Test CRC 40FCDDAD
Copy CRC 40FCDDAD
Accurately ripped (confidence 169) [79EBF9C5] (AR v2)
Copy OK

Track 11

Filename D:\_EAC\The Police – Ghost In The Machine (1981) [FLAC] {A&M Records 393 730-2}\11 – Darkness.wav

Pre-gap length 0:00:00.45

Peak level 91.5 %
Extraction speed 1.5 X
Track quality 100.0 %
Test CRC B740D416
Copy CRC B740D416
Accurately ripped (confidence 167) [6F03A8FE] (AR v2)
Copy OK

All tracks accurately ripped

No errors occurred

End of status report

==== Log checksum 240095E5D6C1A87B5F92715EB9D6796C9926A8E206F6768D7877A1B93EC2B2B3 ====

REM GENRE “New Wave”
REM DATE 1981
REM DISCID 9509A40B
REM COMMENT “ExactAudioCopy v1.1”
PERFORMER “The Police”
TITLE “Ghost In The Machine”
FILE “01 – Spirits In The Material World.wav” WAVE
TRACK 01 AUDIO
TITLE “Spirits In The Material World”
PERFORMER “The Police”
PREGAP 00:00:32
INDEX 01 00:00:00
FILE “02 – Every Little Thing She Does Is Magic.wav” WAVE
TRACK 02 AUDIO
TITLE “Every Little Thing She Does Is Magic”
PERFORMER “The Police”
INDEX 01 00:00:00
TRACK 03 AUDIO
TITLE “Invisible Sun”
PERFORMER “The Police”
INDEX 00 04:20:27
FILE “03 – Invisible Sun.wav” WAVE
INDEX 01 00:00:00
FILE “04 – Hungry For You (J’Aurais Toujours Faim De Toi).wav” WAVE
TRACK 04 AUDIO
TITLE “Hungry For You (J’Aurais Toujours Faim De Toi)”
PERFORMER “The Police”
INDEX 01 00:00:00
TRACK 05 AUDIO
TITLE “Demolition Man”
PERFORMER “The Police”
INDEX 00 02:52:15
FILE “05 – Demolition Man.wav” WAVE
INDEX 01 00:00:00
TRACK 06 AUDIO
TITLE “Too Much Information”
PERFORMER “The Police”
INDEX 00 05:55:03
FILE “06 – Too Much Information.wav” WAVE
INDEX 01 00:00:00
TRACK 07 AUDIO
TITLE “Rehumanize Yourself”
PERFORMER “The Police”
INDEX 00 03:42:20
FILE “07 – Rehumanize Yourself.wav” WAVE
INDEX 01 00:00:00
TRACK 08 AUDIO
TITLE “One World (Not Three)”
PERFORMER “The Police”
INDEX 00 03:10:15
FILE “08 – One World (Not Three).wav” WAVE
INDEX 01 00:00:00
FILE “09 – Omegaman.wav” WAVE
TRACK 09 AUDIO
TITLE “Omegaman”
PERFORMER “The Police”
INDEX 01 00:00:00
TRACK 10 AUDIO
TITLE “Secret Journey”
PERFORMER “The Police”
INDEX 00 02:46:63
FILE “10 – Secret Journey.wav” WAVE
INDEX 01 00:00:00
TRACK 11 AUDIO
TITLE “Darkness”
PERFORMER “The Police”
INDEX 00 03:33:13
FILE “11 – Darkness.wav” WAVE
INDEX 01 00:00:00


Leave a Reply

Your email address will not be published. Required fields are marked *

Enter the text from the image below
 

This site uses Akismet to reduce spam. Learn how your comment data is processed.