The Police – Ghost In The Machine (Remastered)




Artist: The Police
Year: 1981/2003
Genre: Rock
Notes: Discogs
Add. Notes: Remastered
Cover incl.: Yes
Encoder: FLAC
Bitrate: ~900 kBit/s (44.1 kHz/16 Bit/s)
Log & Cue incl.: Yes
Size: 284,1 MB
Password: “slam” (without ” “)


All Downloads/Hosters are compatible

Download 1
Turbobit.net
KatFile.com
Rapidgator.net
Usersdrive.com
Download 2
Turbobit.net
KatFile.com
Rapidgator.net
Usersdrive.com

Tracklist:

1 - Spirits In The Material World - 2:59
2 - Every Little Thing She Does Is Magic - 4:20
3 - Invisible Sun - 3:44
4 - Hungry For You (J'aurais Toujours Faim De Toi) - 2:52
5 - Demolition Man - 5:57
6 - Too Much Information - 3:42
7 - Rehumanize Yourself - 3:10
8 - One World (Not Three) - 4:46
9 - Omegaman - 2:47
10 - Secret Journey - 3:33
11 - Darkness - 3:13

EAC-Log, CUE-Sheed & NFO:

Click to open spoiler
Exact Audio Copy V0.99 prebeta 5 from 4. May 2009

EAC extraction logfile from 24. October 2009, 14:47

The Police / Ghost In The Machine

Used drive : ASUS DRW-2014L1 Adapter: 0 ID: 0

Read mode : Secure
Utilize accurate stream : Yes
Defeat audio cache : Yes
Make use of C2 pointers : No

Read offset correction : 6
Overread into Lead-In and Lead-Out : No
Fill up missing offset samples with silence : Yes
Delete leading and trailing silent blocks : No
Null samples used in CRC calculations : Yes
Used interface : Native Win32 interface for Win NT & 2000
Gap handling : Appended to previous track

Used output format : User Defined Encoder
Selected bitrate : 1024 kBit/s
Quality : High
Add ID3 tag : No
Command line compressor : C:\Program Files\Exact Audio Copy\FLAC\FLAC.EXE
Additional command line options : -8 -V -T “ARTIST=%a” -T “TITLE=%t” -T “ALBUM=%g” -T “DATE=%y” -T “TRACKNUMBER=%n” -T “GENRE=%m” -T “COMMENT=EAC FLAC -8” %s

TOC of the extracted CD

Track | Start | Length | Start sector | End sector
———————————————————
1 | 0:00.00 | 2:59.05 | 0 | 13429
2 | 2:59.05 | 4:20.43 | 13430 | 32972
3 | 7:19.48 | 3:44.15 | 32973 | 49787
4 | 11:03.63 | 2:52.67 | 49788 | 62754
5 | 13:56.55 | 5:57.15 | 62755 | 89544
6 | 19:53.70 | 3:42.50 | 89545 | 106244
7 | 23:36.45 | 3:10.32 | 106245 | 120526
8 | 26:47.02 | 4:46.41 | 120527 | 142017
9 | 31:33.43 | 2:47.65 | 142018 | 154607
10 | 34:21.33 | 3:33.52 | 154608 | 170634
11 | 37:55.10 | 3:13.65 | 170635 | 185174

Track 1

Filename C:\The Police – Ghost In The Machine (1981) [FLAC] {A&M Records 069 493 598-2}\01 – Spirits In The Material World.wav

Pre-gap length 0:00:02.00

Peak level 98.8 %
Track quality 100.0 %
Test CRC D5558EA9
Copy CRC D5558EA9
Accurately ripped (confidence 67) [36AC26FB]
Copy OK

Track 2

Filename C:\The Police – Ghost In The Machine (1981) [FLAC] {A&M Records 069 493 598-2}\02 – Every Little Thing She Does Is Magic.wav

Peak level 98.8 %
Track quality 100.0 %
Test CRC C15B99AB
Copy CRC C15B99AB
Accurately ripped (confidence 67) [5917BF56]
Copy OK

Track 3

Filename C:\The Police – Ghost In The Machine (1981) [FLAC] {A&M Records 069 493 598-2}\03 – Invisible Sun.wav

Peak level 98.8 %
Track quality 100.0 %
Test CRC 0B3C9D2F
Copy CRC 0B3C9D2F
Accurately ripped (confidence 67) [0764C018]
Copy OK

Track 4

Filename C:\The Police – Ghost In The Machine (1981) [FLAC] {A&M Records 069 493 598-2}\04 – Hungry For You [J’aurais Toujours Faim De Toi].wav

Peak level 98.8 %
Track quality 100.0 %
Test CRC 05EBC607
Copy CRC 05EBC607
Accurately ripped (confidence 67) [3CF5DA2D]
Copy OK

Track 5

Filename C:\The Police – Ghost In The Machine (1981) [FLAC] {A&M Records 069 493 598-2}\05 – Demolition Man.wav

Peak level 98.8 %
Track quality 100.0 %
Test CRC BD6288AE
Copy CRC BD6288AE
Accurately ripped (confidence 67) [F954B48A]
Copy OK

Track 6

Filename C:\The Police – Ghost In The Machine (1981) [FLAC] {A&M Records 069 493 598-2}\06 – Too Much Information.wav

Peak level 98.8 %
Track quality 100.0 %
Test CRC AFF2C325
Copy CRC AFF2C325
Accurately ripped (confidence 67) [EF1FFAED]
Copy OK

Track 7

Filename C:\The Police – Ghost In The Machine (1981) [FLAC] {A&M Records 069 493 598-2}\07 – Rehumanize Yourself.wav

Peak level 98.8 %
Track quality 100.0 %
Test CRC 0F75437B
Copy CRC 0F75437B
Accurately ripped (confidence 66) [DD283B78]
Copy OK

Track 8

Filename C:\The Police – Ghost In The Machine (1981) [FLAC] {A&M Records 069 493 598-2}\08 – One World [Not Three].wav

Peak level 98.8 %
Track quality 99.9 %
Test CRC 7088AF27
Copy CRC 7088AF27
Accurately ripped (confidence 67) [04825163]
Copy OK

Track 9

Filename C:\The Police – Ghost In The Machine (1981) [FLAC] {A&M Records 069 493 598-2}\09 – Omegaman.wav

Peak level 98.8 %
Track quality 100.0 %
Test CRC C4BB1DB8
Copy CRC C4BB1DB8
Accurately ripped (confidence 67) [7312D01F]
Copy OK

Track 10

Filename C:\The Police – Ghost In The Machine (1981) [FLAC] {A&M Records 069 493 598-2}\10 – Secret Journey.wav

Peak level 98.8 %
Track quality 100.0 %
Test CRC 2457C788
Copy CRC 2457C788
Accurately ripped (confidence 67) [7889AF14]
Copy OK

Track 11

Filename C:\The Police – Ghost In The Machine (1981) [FLAC] {A&M Records 069 493 598-2}\11 – Darkness.wav

Peak level 98.8 %
Track quality 100.0 %
Test CRC 7122AD0C
Copy CRC 7122AD0C
Accurately ripped (confidence 67) [FB665638]
Copy OK

All tracks accurately ripped

No errors occurred

End of status report

REM GENRE Rock
REM DATE 1981
REM DISCID 9B09A50B
REM COMMENT “ExactAudioCopy v0.99pb5”
PERFORMER “The Police”
TITLE “Ghost In The Machine”
FILE “01 – Spirits In The Material World.wav” WAVE
TRACK 01 AUDIO
TITLE “Spirits In The Material World”
PERFORMER “The Police”
INDEX 01 00:00:00
FILE “02 – Every Little Thing She Does Is Magic.wav” WAVE
TRACK 02 AUDIO
TITLE “Every Little Thing She Does Is Magic”
PERFORMER “The Police”
INDEX 01 00:00:00
FILE “03 – Invisible Sun.wav” WAVE
TRACK 03 AUDIO
TITLE “Invisible Sun”
PERFORMER “The Police”
INDEX 01 00:00:00
FILE “04 – Hungry For You [J’aurais Toujours Faim De Toi].wav” WAVE
TRACK 04 AUDIO
TITLE “Hungry For You [J’aurais Toujours Faim De Toi]”
PERFORMER “The Police”
INDEX 01 00:00:00
FILE “05 – Demolition Man.wav” WAVE
TRACK 05 AUDIO
TITLE “Demolition Man”
PERFORMER “The Police”
INDEX 01 00:00:00
FILE “06 – Too Much Information.wav” WAVE
TRACK 06 AUDIO
TITLE “Too Much Information”
PERFORMER “The Police”
INDEX 01 00:00:00
FILE “07 – Rehumanize Yourself.wav” WAVE
TRACK 07 AUDIO
TITLE “Rehumanize Yourself”
PERFORMER “The Police”
INDEX 01 00:00:00
FILE “08 – One World [Not Three].wav” WAVE
TRACK 08 AUDIO
TITLE “One World [Not Three]”
PERFORMER “The Police”
INDEX 01 00:00:00
FILE “09 – Omegaman.wav” WAVE
TRACK 09 AUDIO
TITLE “Omegaman”
PERFORMER “The Police”
INDEX 01 00:00:00
FILE “10 – Secret Journey.wav” WAVE
TRACK 10 AUDIO
TITLE “Secret Journey”
PERFORMER “The Police”
INDEX 01 00:00:00
FILE “11 – Darkness.wav” WAVE
TRACK 11 AUDIO
TITLE “Darkness”
PERFORMER “The Police”
INDEX 01 00:00:00


Leave a Reply

Your email address will not be published. Required fields are marked *

Enter the text from the image below
 

This site uses Akismet to reduce spam. Learn how your comment data is processed.