The Only Ones – The Peel Sessions Album




Artist: The Only Ones
Year: 1989
Genre: Punk
Notes: Discogs
Add. Notes:
Cover incl.: Yes
Encoder: FLAC
Bitrate: ~900 kBit/s (44.1 kHz/16 Bit/s)
Log & Cue incl.: Yes
Size: 340,16 MB
Password: “slam” (without ” “)


All Downloads/Hosters are compatible

Download 1
Turbobit.net
KatFile.com
Rapidgator.net
Usersdrive.com
Download 2
Turbobit.net
KatFile.com
Rapidgator.net
Usersdrive.com

Tracklist:

1 - Oh Lucinda - 3:11
2 - No Peace For The Wicked - 2:30
3 - Oh No - 2:01
4 - The Beast - 5:33
5 - In Betweens - 3:40
6 - Another Girl, Another Planet - 2:54
7 - Language Problem - 2:26
8 - From Here To Eternity - 3:20
9 - Lovers Of Today - 3:02
10 - Why Don't You Kill Yourself - 3:02
11 - Telescopic Love - 2:42
12 - Flaming Torch - 2:16
13 - Miles From Nowhere - 3:38
14 - Prisoners - 3:10
15 - The Happy Pilgrim - 2:41
16 - The Big Sleep - 5:11

EAC-Log, CUE-Sheed & NFO:

Click to open spoiler
Exact Audio Copy V1.0 beta 3 from 29. August 2011

EAC extraction logfile from 6. October 2014, 20:34

The Only Ones / The Peel Sessions

Used drive : ATAPI iHAS124 B Adapter: 1 ID: 1

Read mode : Secure
Utilize accurate stream : Yes
Defeat audio cache : Yes
Make use of C2 pointers : No

Read offset correction : 6
Overread into Lead-In and Lead-Out : No
Fill up missing offset samples with silence : Yes
Delete leading and trailing silent blocks : No
Null samples used in CRC calculations : Yes
Used interface : Installed external ASPI interface

Used output format : User Defined Encoder
Selected bitrate : 1024 kBit/s
Quality : High
Add ID3 tag : No
Command line compressor : C:\Program Files\FLAC\flac.exe
Additional command line options : -V -8 -T “Date=%year%” -T “Genre=%genre%” %source%

TOC of the extracted CD

Track | Start | Length | Start sector | End sector
———————————————————
1 | 0:00.00 | 3:16.01 | 0 | 14700
2 | 3:16.01 | 2:35.09 | 14701 | 26334
3 | 5:51.10 | 2:05.64 | 26335 | 35773
4 | 7:56.74 | 5:37.57 | 35774 | 61105
5 | 13:34.56 | 3:44.09 | 61106 | 77914
6 | 17:18.65 | 2:58.39 | 77915 | 91303
7 | 20:17.29 | 2:30.61 | 91304 | 102614
8 | 22:48.15 | 3:24.60 | 102615 | 117974
9 | 26:13.00 | 3:06.14 | 117975 | 131938
10 | 29:19.14 | 3:06.12 | 131939 | 145900
11 | 32:25.26 | 2:45.51 | 145901 | 158326
12 | 35:11.02 | 2:19.67 | 158327 | 168818
13 | 37:30.69 | 3:41.72 | 168819 | 185465
14 | 41:12.66 | 3:15.57 | 185466 | 200147
15 | 44:28.48 | 2:40.54 | 200148 | 212201
16 | 47:09.27 | 5:13.34 | 212202 | 235710

Range status and errors

Selected range

Filename D:\The Only Ones – The Peel Sessions (1989)\The Only Ones – The Peel Sessions.wav

Peak level 100.0 %
Extraction speed 9.1 X
Range quality 100.0 %
Test CRC C2D82443
Copy CRC C2D82443
Copy OK

No errors occurred

AccurateRip summary

Track 1 not present in database
Track 2 not present in database
Track 3 not present in database
Track 4 not present in database
Track 5 not present in database
Track 6 not present in database
Track 7 not present in database
Track 8 not present in database
Track 9 not present in database
Track 10 not present in database
Track 11 not present in database
Track 12 not present in database
Track 13 not present in database
Track 14 not present in database
Track 15 not present in database
Track 16 not present in database

None of the tracks are present in the AccurateRip database

End of status report

==== Log checksum 6C068E6CF6D6F38453F4C9FD5B4A421A46ED976D0B5F1B620B4414CFBC2A2643 ====

REM GENRE “Punk Rock”
REM DATE 1989
REM DISCID D40C4610
REM COMMENT “ExactAudioCopy v1.0b3”
PERFORMER “The Only Ones”
TITLE ” The Peel Sessions ”
FILE “The Only Ones – The Peel Sessions.flac” WAVE
TRACK 01 AUDIO
TITLE “Oh Lucinda”
PERFORMER “The Only Ones”
FLAGS DCP
INDEX 01 00:00:00
TRACK 02 AUDIO
TITLE “No Peace For The Wicked”
PERFORMER “The Only Ones”
FLAGS DCP
INDEX 01 03:16:01
TRACK 03 AUDIO
TITLE “Oh No”
PERFORMER “The Only Ones”
FLAGS DCP
INDEX 01 05:51:10
TRACK 04 AUDIO
TITLE “The Beast”
PERFORMER “The Only Ones”
FLAGS DCP
INDEX 01 07:56:74
TRACK 05 AUDIO
TITLE “In Betweens”
PERFORMER “The Only Ones”
FLAGS DCP
INDEX 01 13:34:56
TRACK 06 AUDIO
TITLE “Another Girl, Another Planet”
PERFORMER “The Only Ones”
FLAGS DCP
INDEX 01 17:18:65
TRACK 07 AUDIO
TITLE “Language Problem”
PERFORMER “The Only Ones”
FLAGS DCP
INDEX 01 20:17:29
TRACK 08 AUDIO
TITLE “From Here To Eternity”
PERFORMER “The Only Ones”
FLAGS DCP
INDEX 01 22:48:15
TRACK 09 AUDIO
TITLE “Lovers Of Today”
PERFORMER “The Only Ones”
FLAGS DCP
INDEX 01 26:13:00
TRACK 10 AUDIO
TITLE “Why Don’t You Kill Yourself”
PERFORMER “The Only Ones”
FLAGS DCP
INDEX 01 29:19:14
TRACK 11 AUDIO
TITLE “Telescopic Love”
PERFORMER “The Only Ones”
FLAGS DCP
INDEX 01 32:25:26
TRACK 12 AUDIO
TITLE “Flaming Torch”
PERFORMER “The Only Ones”
FLAGS DCP
INDEX 01 35:11:02
TRACK 13 AUDIO
TITLE “Miles From Nowhere”
PERFORMER “The Only Ones”
FLAGS DCP
INDEX 01 37:30:69
TRACK 14 AUDIO
TITLE “Prisoners”
PERFORMER “The Only Ones”
FLAGS DCP
INDEX 01 41:12:66
TRACK 15 AUDIO
TITLE “The Happy Pilgrim”
PERFORMER “The Only Ones”
FLAGS DCP
INDEX 01 44:28:48
TRACK 16 AUDIO
TITLE “The Big Sleep”
PERFORMER “The Only Ones”
FLAGS DCP
INDEX 01 47:09:27


Leave a Reply

Your email address will not be published. Required fields are marked *

This site uses Akismet to reduce spam. Learn how your comment data is processed.