The Only Ones – The Only Ones (Remastered)




Artist: The Only Ones
Year: 1978/2009
Genre: Rock
Notes: Discogs
Add. Notes: Remastered
Cover incl.: Yes
Encoder: FLAC
Bitrate: ~900 kBit/s (44.1 kHz/16 Bit/s)
Log & Cue incl.: Yes
Size: 272,64 MB
Password: “slam” (without ” “)


All Downloads/Hosters are compatible

Download 1
Turbobit.net
Rapidgator.net
KatFile.com
UploadRar.com
Download 2
Turbobit.net
Rapidgator.net
KatFile.com
UploadRar.com

Tracklist:

1 - The Whole Of The Law - 2:38
2 - Another Girl, Another Planet - 3:02
3 - Breaking Down - 4:52
4 - City Of Fun - 3:32
5 - The Beast - 5:47
6 - Creature Of Doom - 2:33
7 - It's The Truth - 2:06
8 - Language Problem - 2:28
9 - No Peace For The Wicked - 2:51
10 - The Immortal Story - 3:57
Bonus Tracks
11 - Lovers Of Today - 3:12
12 - Peter And The Pets - 3:04
13 - As My Wife Says - 1:53

EAC-Log, CUE-Sheed & NFO:

Click to open spoiler
X Lossless Decoder version 20091202 (114.5)

XLD extraction logfile from 2009-12-08 01:05:44 -0600

The Only Ones / The Only Ones

Used drive : OPTIARC DVD RW AD-5630A (revision 1AHM)

Use cdparanoia mode : YES (CDParanoia III 10.2 engine)
Disable audio cache : OK for the drive with cache less than 2750KB
Make use of C2 pointers : NO
Read offset correction : 48
Max retry count : 100

TOC of the extracted CD
Track | Start | Length | Start sector | End sector
———————————————————
1 | 00:00:00 | 02:38:03 | 0 | 11852
2 | 02:38:03 | 03:02:15 | 11853 | 25517
3 | 05:40:18 | 04:51:74 | 25518 | 47416
4 | 10:32:17 | 03:32:21 | 47417 | 63337
5 | 14:04:38 | 05:47:42 | 63338 | 89404
6 | 19:52:05 | 02:33:59 | 89405 | 100938
7 | 22:25:64 | 02:06:49 | 100939 | 110437
8 | 24:32:38 | 02:28:59 | 110438 | 121596
9 | 27:01:22 | 02:51:36 | 121597 | 134457
10 | 29:52:58 | 03:56:70 | 134458 | 152227
11 | 33:49:53 | 03:11:73 | 152228 | 166625
12 | 37:01:51 | 03:03:70 | 166626 | 180420
13 | 40:05:46 | 01:53:22 | 180421 | 188917

Track 01
Filename : /Users/x/Music/01 – The Whole Of The Law.flac

CRC32 hash (test run) : 8A634E1D
CRC32 hash : 8A634E1D
CRC32 hash (skip zero) : 22CA9904
AccurateRip signature : EF4B46E3
->Accurately ripped! (confidence 3)
Statistics
Read error : 0
Skipped (treated as error) : 0
Edge jitter error (maybe fixed) : 0
Atom jitter error (maybe fixed) : 0
Drift error (maybe fixed) : 0
Dropped bytes error (maybe fixed) : 0
Duplicated bytes error (maybe fixed) : 0
Inconsistency in error sectors : 0

Track 02
Filename : /Users/x/Music/02 – Another Girl, Another Planet.flac

CRC32 hash (test run) : 6A0EBC3A
CRC32 hash : 6A0EBC3A
CRC32 hash (skip zero) : 75FBD85A
AccurateRip signature : 40152BF4
->Accurately ripped! (confidence 3)
Statistics
Read error : 0
Skipped (treated as error) : 0
Edge jitter error (maybe fixed) : 0
Atom jitter error (maybe fixed) : 0
Drift error (maybe fixed) : 0
Dropped bytes error (maybe fixed) : 0
Duplicated bytes error (maybe fixed) : 0
Inconsistency in error sectors : 0

Track 03
Filename : /Users/x/Music/03 – Breaking Down.flac

CRC32 hash (test run) : 64FA0C4D
CRC32 hash : 64FA0C4D
CRC32 hash (skip zero) : 9BA8F36C
AccurateRip signature : C3178A44
->Accurately ripped! (confidence 3)
Statistics
Read error : 0
Skipped (treated as error) : 0
Edge jitter error (maybe fixed) : 0
Atom jitter error (maybe fixed) : 0
Drift error (maybe fixed) : 0
Dropped bytes error (maybe fixed) : 0
Duplicated bytes error (maybe fixed) : 0
Inconsistency in error sectors : 0

Track 04
Filename : /Users/x/Music/04 – City Of Fun.flac

CRC32 hash (test run) : C1B416E3
CRC32 hash : C1B416E3
CRC32 hash (skip zero) : A888A8F2
AccurateRip signature : 0504E0E4
->Accurately ripped! (confidence 3)
Statistics
Read error : 0
Skipped (treated as error) : 0
Edge jitter error (maybe fixed) : 0
Atom jitter error (maybe fixed) : 0
Drift error (maybe fixed) : 0
Dropped bytes error (maybe fixed) : 0
Duplicated bytes error (maybe fixed) : 0
Inconsistency in error sectors : 0

Track 05
Filename : /Users/x/Music/05 – The Beast.flac

CRC32 hash (test run) : 283B4C1D
CRC32 hash : 283B4C1D
CRC32 hash (skip zero) : 06CC861B
AccurateRip signature : 7F2F2390
->Accurately ripped! (confidence 3)
Statistics
Read error : 0
Skipped (treated as error) : 0
Edge jitter error (maybe fixed) : 0
Atom jitter error (maybe fixed) : 0
Drift error (maybe fixed) : 0
Dropped bytes error (maybe fixed) : 0
Duplicated bytes error (maybe fixed) : 0
Inconsistency in error sectors : 0

Track 06
Filename : /Users/x/Music/06 – Creature Of Doom.flac

CRC32 hash (test run) : 22DA0F49
CRC32 hash : 22DA0F49
CRC32 hash (skip zero) : 41C9C202
AccurateRip signature : B29FF5AC
->Accurately ripped! (confidence 3)
Statistics
Read error : 0
Skipped (treated as error) : 0
Edge jitter error (maybe fixed) : 0
Atom jitter error (maybe fixed) : 0
Drift error (maybe fixed) : 0
Dropped bytes error (maybe fixed) : 0
Duplicated bytes error (maybe fixed) : 0
Inconsistency in error sectors : 0

Track 07
Filename : /Users/x/Music/07 – It’s The Truth.flac

CRC32 hash (test run) : 123B4EA6
CRC32 hash : 123B4EA6
CRC32 hash (skip zero) : 5A65F775
AccurateRip signature : 58DD9D80
->Accurately ripped! (confidence 3)
Statistics
Read error : 0
Skipped (treated as error) : 0
Edge jitter error (maybe fixed) : 0
Atom jitter error (maybe fixed) : 0
Drift error (maybe fixed) : 0
Dropped bytes error (maybe fixed) : 0
Duplicated bytes error (maybe fixed) : 0
Inconsistency in error sectors : 0

Track 08
Filename : /Users/x/Music/08 – Language Problem.flac

CRC32 hash (test run) : C7C60F8B
CRC32 hash : C7C60F8B
CRC32 hash (skip zero) : F4BBB576
AccurateRip signature : 8FB9154E
->Accurately ripped! (confidence 3)
Statistics
Read error : 0
Skipped (treated as error) : 0
Edge jitter error (maybe fixed) : 0
Atom jitter error (maybe fixed) : 0
Drift error (maybe fixed) : 0
Dropped bytes error (maybe fixed) : 0
Duplicated bytes error (maybe fixed) : 0
Inconsistency in error sectors : 0

Track 09
Filename : /Users/x/Music/09 – No Peace For The Wicked.flac

CRC32 hash (test run) : C73268EC
CRC32 hash : C73268EC
CRC32 hash (skip zero) : BC0C8814
AccurateRip signature : FAA30BA5
->Accurately ripped! (confidence 3)
Statistics
Read error : 0
Skipped (treated as error) : 0
Edge jitter error (maybe fixed) : 0
Atom jitter error (maybe fixed) : 0
Drift error (maybe fixed) : 0
Dropped bytes error (maybe fixed) : 0
Duplicated bytes error (maybe fixed) : 0
Inconsistency in error sectors : 0

Track 10
Filename : /Users/x/Music/10 – The Immortal Story.flac

CRC32 hash (test run) : ED7BB81A
CRC32 hash : ED7BB81A
CRC32 hash (skip zero) : F5CF44DC
AccurateRip signature : 2E26FEB6
->Accurately ripped! (confidence 3)
Statistics
Read error : 0
Skipped (treated as error) : 0
Edge jitter error (maybe fixed) : 0
Atom jitter error (maybe fixed) : 0
Drift error (maybe fixed) : 0
Dropped bytes error (maybe fixed) : 0
Duplicated bytes error (maybe fixed) : 0
Inconsistency in error sectors : 0

Track 11
Filename : /Users/x/Music/11 – Lovers Of Today.flac

CRC32 hash (test run) : 3225BD7B
CRC32 hash : 3225BD7B
CRC32 hash (skip zero) : C8D0BD22
AccurateRip signature : 78BC6671
->Accurately ripped! (confidence 3)
Statistics
Read error : 0
Skipped (treated as error) : 0
Edge jitter error (maybe fixed) : 0
Atom jitter error (maybe fixed) : 0
Drift error (maybe fixed) : 0
Dropped bytes error (maybe fixed) : 0
Duplicated bytes error (maybe fixed) : 0
Inconsistency in error sectors : 0

Track 12
Filename : /Users/x/Music/12 – Peter And The Pets.flac

CRC32 hash (test run) : AC0C1DF8
CRC32 hash : AC0C1DF8
CRC32 hash (skip zero) : ED062CD5
AccurateRip signature : 8840A336
->Accurately ripped! (confidence 3)
Statistics
Read error : 0
Skipped (treated as error) : 0
Edge jitter error (maybe fixed) : 0
Atom jitter error (maybe fixed) : 0
Drift error (maybe fixed) : 0
Dropped bytes error (maybe fixed) : 0
Duplicated bytes error (maybe fixed) : 0
Inconsistency in error sectors : 0

Track 13
Filename : /Users/x/Music/13 – As My Wife Says.flac

CRC32 hash (test run) : C0432231
CRC32 hash : C0432231
CRC32 hash (skip zero) : CFA971DC
AccurateRip signature : 3BA5B1F7
->Accurately ripped! (confidence 2)
Statistics
Read error : 0
Skipped (treated as error) : 0
Edge jitter error (maybe fixed) : 0
Atom jitter error (maybe fixed) : 0
Drift error (maybe fixed) : 0
Dropped bytes error (maybe fixed) : 0
Duplicated bytes error (maybe fixed) : 0
Inconsistency in error sectors : 0

No errors occurred

End of status report

TITLE “The Only Ones”
PERFORMER “The Only Ones”
REM GENRE “Rock”
REM DATE 2009
FILE “01 – The Whole Of The Law.wav” WAVE
TRACK 01 AUDIO
TITLE “The Whole Of The Law”
ISRC GBBBN0800001
INDEX 01 00:00:00
TRACK 02 AUDIO
TITLE “Another Girl, Another Planet”
ISRC GBBBN0800002
INDEX 00 02:37:73
FILE “02 – Another Girl, Another Planet.wav” WAVE
INDEX 01 00:00:00
TRACK 03 AUDIO
TITLE “Breaking Down”
ISRC GBBBN0800003
INDEX 00 03:01:13
FILE “03 – Breaking Down.wav” WAVE
INDEX 01 00:00:00
TRACK 04 AUDIO
TITLE “City Of Fun”
ISRC GBBBN0800004
INDEX 00 04:49:55
FILE “04 – City Of Fun.wav” WAVE
INDEX 01 00:00:00
TRACK 05 AUDIO
TITLE “The Beast”
ISRC GBBBN0800005
INDEX 00 03:30:68
FILE “05 – The Beast.wav” WAVE
INDEX 01 00:00:00
TRACK 06 AUDIO
TITLE “Creature Of Doom”
ISRC GBBBN0800006
INDEX 00 05:46:62
FILE “06 – Creature Of Doom.wav” WAVE
INDEX 01 00:00:00
FILE “07 – It’s The Truth.wav” WAVE
TRACK 07 AUDIO
TITLE “It’s The Truth”
ISRC GBBBN0800007
INDEX 01 00:00:00
FILE “08 – Language Problem.wav” WAVE
TRACK 08 AUDIO
TITLE “Language Problem”
ISRC GBBBN0800008
INDEX 01 00:00:00
FILE “09 – No Peace For The Wicked.wav” WAVE
TRACK 09 AUDIO
TITLE “No Peace For The Wicked”
ISRC GBBBN0800009
INDEX 01 00:00:00
FILE “10 – The Immortal Story.wav” WAVE
TRACK 10 AUDIO
TITLE “The Immortal Story”
ISRC GBBBN0800010
INDEX 01 00:00:00
TRACK 11 AUDIO
TITLE “Lovers Of Today”
ISRC GBBBN0800011
INDEX 00 03:56:67
FILE “11 – Lovers Of Today.wav” WAVE
INDEX 01 00:00:00
TRACK 12 AUDIO
TITLE “Peter And The Pets”
ISRC GBBBN0800012
INDEX 00 03:11:53
FILE “12 – Peter And The Pets.wav” WAVE
INDEX 01 00:00:00
FILE “13 – As My Wife Says.wav” WAVE
TRACK 13 AUDIO
TITLE “As My Wife Says”
ISRC GBBBN0800013
INDEX 01 00:00:00


Leave a Reply

Your email address will not be published. Required fields are marked *

This site uses Akismet to reduce spam. Learn how your comment data is processed.