The Only Ones – Even Serpent Shine




Artist: The Only Ones
Year: 1979/1995
Genre: Rock
Notes: Discogs
Add. Notes:
Cover incl.: Yes
Encoder: FLAC
Bitrate: ~900 kBit/s (44.1 kHz/16 Bit/s)
Log & Cue incl.: Yes
Size: 294,67 MB
Password: “slam” (without ” “)


All Downloads/Hosters are compatible

Download 1
Turbobit.net
KatFile.com
Rapidgator.net
Usersdrive.com
Download 2
Turbobit.net
KatFile.com
Rapidgator.net
Usersdrive.com

Tracklist:

1 - From Here To Eternity - 3:04
2 - Flaming Torch - 2:18
3 - You've Got To Pay - 2:44
4 - No Solution - 2:21
5 - Inbetween - 3:54
6 - Out There In The Night - 3:00
7 - Curtains For You - 4:17
8 - Programme - 2:08
9 - Someone Who Cares - 3:10
10 - Miles From Nowhere - 3:41
11 - Instrumental - 4:00

EAC-Log, CUE-Sheed & NFO:

Click to open spoiler
Exact Audio Copy V1.0 beta 3 from 29. August 2011

EAC extraction logfile from 6. September 2014, 21:37

The Only Ones / Even Serpent Shine

Used drive : ATAPI iHAS124 B Adapter: 1 ID: 1

Read mode : Secure
Utilize accurate stream : Yes
Defeat audio cache : Yes
Make use of C2 pointers : No

Read offset correction : 6
Overread into Lead-In and Lead-Out : No
Fill up missing offset samples with silence : Yes
Delete leading and trailing silent blocks : No
Null samples used in CRC calculations : Yes
Used interface : Installed external ASPI interface

Used output format : User Defined Encoder
Selected bitrate : 1024 kBit/s
Quality : High
Add ID3 tag : No
Command line compressor : C:\Program Files\FLAC\flac.exe
Additional command line options : -V -8 -T “Date=%year%” -T “Genre=%genre%” %source%

TOC of the extracted CD

Track | Start | Length | Start sector | End sector
———————————————————
1 | 0:00.00 | 3:08.47 | 0 | 14146
2 | 3:08.47 | 2:21.45 | 14147 | 24766
3 | 5:30.17 | 2:45.34 | 24767 | 37175
4 | 8:15.51 | 2:25.52 | 37176 | 48102
5 | 10:41.28 | 3:59.09 | 48103 | 66036
6 | 14:40.37 | 3:03.70 | 66037 | 79831
7 | 17:44.32 | 4:18.21 | 79832 | 99202
8 | 22:02.53 | 2:11.51 | 99203 | 109078
9 | 24:14.29 | 3:11.52 | 109079 | 123455
10 | 27:26.06 | 3:45.10 | 123456 | 140340
11 | 31:11.16 | 4:02.21 | 140341 | 158511
12 | 35:13.37 | 2:50.73 | 158512 | 171334
13 | 38:04.35 | 2:20.22 | 171335 | 181856
14 | 40:24.57 | 3:45.54 | 181857 | 198785

Range status and errors

Selected range

Filename D:\The Only Ones – Even Serpent Shine (1979)\The Only Ones – Even Serpent Shine.wav

Peak level 100.0 %
Extraction speed 3.2 X
Range quality 100.0 %
Test CRC F836623B
Copy CRC F836623B
Copy OK

No errors occurred

AccurateRip summary

Track 1 not present in database
Track 2 not present in database
Track 3 not present in database
Track 4 not present in database
Track 5 not present in database
Track 6 not present in database
Track 7 not present in database
Track 8 not present in database
Track 9 not present in database
Track 10 not present in database
Track 11 not present in database
Track 12 not present in database
Track 13 not present in database
Track 14 not present in database

None of the tracks are present in the AccurateRip database

End of status report

==== Log checksum 47839ADB4D7170AD0490E7E790737FAB1BD4CD04AF08D47B360F50C08D772F17 ====

REM GENRE “Punk Rock”
REM DATE 1979
REM DISCID BD0A5A0E
REM COMMENT “ExactAudioCopy v1.0b3”
PERFORMER “The Only Ones”
TITLE “Even Serpent Shine”
FILE “The Only Ones – Even Serpent Shine.flac” WAVE
TRACK 01 AUDIO
TITLE “From Here To Eternity”
PERFORMER “The Only Ones”
FLAGS DCP
INDEX 01 00:00:00
TRACK 02 AUDIO
TITLE “Flaming Torch”
PERFORMER “The Only Ones”
FLAGS DCP
INDEX 01 03:08:47
TRACK 03 AUDIO
TITLE “You’ve Got To Pay”
PERFORMER “The Only Ones”
FLAGS DCP
INDEX 01 05:30:17
TRACK 04 AUDIO
TITLE “No Solution”
PERFORMER “The Only Ones”
FLAGS DCP
INDEX 01 08:15:51
TRACK 05 AUDIO
TITLE “Inbetweens”
PERFORMER “The Only Ones”
FLAGS DCP
INDEX 01 10:41:28
TRACK 06 AUDIO
TITLE “Out There In The Night”
PERFORMER “The Only Ones”
FLAGS DCP
INDEX 01 14:40:37
TRACK 07 AUDIO
TITLE “Curtains For You”
PERFORMER “The Only Ones”
FLAGS DCP
INDEX 01 17:44:32
TRACK 08 AUDIO
TITLE “Programme”
PERFORMER “The Only Ones”
FLAGS DCP
INDEX 01 22:02:53
TRACK 09 AUDIO
TITLE “Someone Who Cares”
PERFORMER “The Only Ones”
FLAGS DCP
INDEX 01 24:14:29
TRACK 10 AUDIO
TITLE “Miles From Nowhere”
PERFORMER “The Only Ones”
FLAGS DCP
INDEX 01 27:26:06
TRACK 11 AUDIO
TITLE “Instrumental”
PERFORMER “The Only Ones”
FLAGS DCP
INDEX 01 31:11:16
TRACK 12 AUDIO
TITLE “Special View (Bonus Track)”
PERFORMER “The Only Ones”
FLAGS DCP
INDEX 01 35:13:37
TRACK 13 AUDIO
TITLE “Oh No (Bonus Track)”
PERFORMER “The Only Ones”
FLAGS DCP
INDEX 01 38:04:35
TRACK 14 AUDIO
TITLE “This Ain’t All (It’s MadeTo Be) (Bonus Track)”
PERFORMER “The Only Ones”
FLAGS DCP
INDEX 01 40:24:57


Leave a Reply

Your email address will not be published. Required fields are marked *

This site uses Akismet to reduce spam. Learn how your comment data is processed.