The Only Ones – Baby’s Got A Gun (Remastered)




Artist: The Only Ones
Year: 1979/2009
Genre: Rock
Notes: Discogs
Add. Notes: Remastered
Cover incl.: Yes
Encoder: FLAC
Bitrate: ~1000 kBit/s (44.1 kHz/16 Bit/s)
Log & Cue incl.: Yes
Size: 330,43 MB
Password: “slam” (without ” “)


All Downloads/Hosters are compatible

Download 1
NitroFlare.com
KatFile.com
Turbobit.net
Rapidgator.net
UploadRar.com
Download 2
NitroFlare.com
KatFile.com
Turbobit.net
Rapidgator.net
UploadRar.com

Tracklist:

1 - The Happy Pilgrim - 2:31
2 - Why Don't You Kill Yourself? - 2:43
3 - Me And My Shadow - 5:41
4 - Deadly Nightshade - 3:08
5 - Strange Mouth - 2:31
6 - The Big Sleep - 4:59
7 - Oh Lucinda (Love Becomes A Habit) - 3:10
8 - Re-Union - 2:58
9 - Trouble In The World - 3:06
10 - Castle Built On Sand - 1:52
11 - Fools - 2:25
12 - My Way Out Of Here - 3:50
Bonus Tracks
13 - Baby's Got A Gun - 1:56
14 - The Big Sleep (Advision Studio Session 1979) - 4:38
15 - Your Chosen Life - 2:48

EAC-Log, CUE-Sheed & NFO:

Click to open spoiler
Exact Audio Copy V0.99 prebeta 4 from 23. January 2008

EAC extraction logfile from 2. April 2009, 20:17

The Only Ones / Baby’s Got A Gun (Remastered & Expanded 2009)

Used drive : PLEXTOR DVDR PX-760A Adapter: 4 ID: 4

Read mode : Secure
Utilize accurate stream : Yes
Defeat audio cache : Yes
Make use of C2 pointers : No

Read offset correction : 30
Overread into Lead-In and Lead-Out : No
Fill up missing offset samples with silence : Yes
Delete leading and trailing silent blocks : No
Null samples used in CRC calculations : Yes
Used interface : Native Win32 interface for Win NT & 2000
Gap handling : Appended to previous track

Used output format : User Defined Encoder
Selected bitrate : 768 kBit/s
Quality : High
Add ID3 tag : No
Command line compressor : C:\Program Files\Exact Audio Copy\FLAC\FLAC.EXE
Additional command line options : -V -8 -T “artist=%a” -T “title=%t” -T “album=%g” -T “date=%y” -T “tracknumber=%n” -T “genre=%m” %s

TOC of the extracted CD

Track | Start | Length | Start sector | End sector
———————————————————
1 | 0:00.00 | 2:31.58 | 0 | 11382
2 | 2:31.58 | 2:43.47 | 11383 | 23654
3 | 5:15.30 | 5:41.11 | 23655 | 49240
4 | 10:56.41 | 3:08.19 | 49241 | 63359
5 | 14:04.60 | 2:31.36 | 63360 | 74720
6 | 16:36.21 | 4:59.18 | 74721 | 97163
7 | 21:35.39 | 3:10.07 | 97164 | 111420
8 | 24:45.46 | 2:58.15 | 111421 | 124785
9 | 27:43.61 | 3:06.15 | 124786 | 138750
10 | 30:50.01 | 1:52.25 | 138751 | 147175
11 | 32:42.26 | 2:25.32 | 147176 | 158082
12 | 35:07.58 | 3:50.30 | 158083 | 175362
13 | 38:58.13 | 1:56.67 | 175363 | 184129
14 | 40:55.05 | 4:38.13 | 184130 | 204992
15 | 45:33.18 | 2:48.18 | 204993 | 217610

Track 1

Filename D:\mijn documenten\Mijn muziek\The Only Ones – 1979 – Baby’s Got A Gun (Remastered & Expanded 2009)\01 – The Happy Pilgrim.wav

Pre-gap length 0:00:02.00

Peak level 100.0 %
Track quality 99.9 %
Test CRC 7F469DDD
Copy CRC 7F469DDD
Track not present in AccurateRip database
Copy OK

Track 2

Filename D:\mijn documenten\Mijn muziek\The Only Ones – 1979 – Baby’s Got A Gun (Remastered & Expanded 2009)\02 – Why Don’t You Kill Yourself .wav

Peak level 99.6 %
Track quality 100.0 %
Test CRC C62058C9
Copy CRC C62058C9
Track not present in AccurateRip database
Copy OK

Track 3

Filename D:\mijn documenten\Mijn muziek\The Only Ones – 1979 – Baby’s Got A Gun (Remastered & Expanded 2009)\03 – Me And My Shadow.wav

Pre-gap length 0:00:00.40

Peak level 98.7 %
Track quality 100.0 %
Test CRC A28F8042
Copy CRC A28F8042
Track not present in AccurateRip database
Copy OK

Track 4

Filename D:\mijn documenten\Mijn muziek\The Only Ones – 1979 – Baby’s Got A Gun (Remastered & Expanded 2009)\04 – Deadly Nightshade.wav

Peak level 100.0 %
Track quality 99.7 %
Test CRC 4D88EC60
Copy CRC 4D88EC60
Track not present in AccurateRip database
Copy OK

Track 5

Filename D:\mijn documenten\Mijn muziek\The Only Ones – 1979 – Baby’s Got A Gun (Remastered & Expanded 2009)\05 – Strange Mouth.wav

Pre-gap length 0:00:00.53

Peak level 100.0 %
Track quality 100.0 %
Test CRC 1B0AE65A
Copy CRC 1B0AE65A
Track not present in AccurateRip database
Copy OK

Track 6

Filename D:\mijn documenten\Mijn muziek\The Only Ones – 1979 – Baby’s Got A Gun (Remastered & Expanded 2009)\06 – The Big Sleep.wav

Peak level 100.0 %
Track quality 100.0 %
Test CRC 6B553C14
Copy CRC 6B553C14
Track not present in AccurateRip database
Copy OK

Track 7

Filename D:\mijn documenten\Mijn muziek\The Only Ones – 1979 – Baby’s Got A Gun (Remastered & Expanded 2009)\07 – Oh Lucinda (Love Becomes A Habit).wav

Pre-gap length 0:00:00.73

Peak level 98.8 %
Track quality 100.0 %
Test CRC F6A6725C
Copy CRC F6A6725C
Track not present in AccurateRip database
Copy OK

Track 8

Filename D:\mijn documenten\Mijn muziek\The Only Ones – 1979 – Baby’s Got A Gun (Remastered & Expanded 2009)\08 – Re-Union.wav

Peak level 100.0 %
Track quality 100.0 %
Test CRC E971ED34
Copy CRC E971ED34
Track not present in AccurateRip database
Copy OK

Track 9

Filename D:\mijn documenten\Mijn muziek\The Only Ones – 1979 – Baby’s Got A Gun (Remastered & Expanded 2009)\09 – Trouble In The World.wav

Peak level 100.0 %
Track quality 100.0 %
Test CRC AB449B17
Copy CRC AB449B17
Track not present in AccurateRip database
Copy OK

Track 10

Filename D:\mijn documenten\Mijn muziek\The Only Ones – 1979 – Baby’s Got A Gun (Remastered & Expanded 2009)\10 – Castle Built On Sand.wav

Peak level 100.0 %
Track quality 100.0 %
Test CRC 53FC56CC
Copy CRC 53FC56CC
Track not present in AccurateRip database
Copy OK

Track 11

Filename D:\mijn documenten\Mijn muziek\The Only Ones – 1979 – Baby’s Got A Gun (Remastered & Expanded 2009)\11 – Fools.wav

Pre-gap length 0:00:01.05

Peak level 100.0 %
Track quality 99.9 %
Test CRC 3E64B36E
Copy CRC 3E64B36E
Track not present in AccurateRip database
Copy OK

Track 12

Filename D:\mijn documenten\Mijn muziek\The Only Ones – 1979 – Baby’s Got A Gun (Remastered & Expanded 2009)\12 – My Way Out Of Here.wav

Peak level 100.0 %
Track quality 100.0 %
Test CRC 2B5EE2C6
Copy CRC 2B5EE2C6
Track not present in AccurateRip database
Copy OK

Track 13

Filename D:\mijn documenten\Mijn muziek\The Only Ones – 1979 – Baby’s Got A Gun (Remastered & Expanded 2009)\13 – Baby’s Got A Gun.wav

Peak level 94.8 %
Track quality 99.9 %
Test CRC 7DF84B42
Copy CRC 7DF84B42
Track not present in AccurateRip database
Copy OK

Track 14

Filename D:\mijn documenten\Mijn muziek\The Only Ones – 1979 – Baby’s Got A Gun (Remastered & Expanded 2009)\14 – The Big Sleep (Advision Studio Session 1979).wav

Pre-gap length 0:00:00.22

Peak level 98.8 %
Track quality 100.0 %
Test CRC DCBE87F7
Copy CRC DCBE87F7
Track not present in AccurateRip database
Copy OK

Track 15

Filename D:\mijn documenten\Mijn muziek\The Only Ones – 1979 – Baby’s Got A Gun (Remastered & Expanded 2009)\15 – Your Chosen Life.wav

Pre-gap length 0:00:00.29

Peak level 98.9 %
Track quality 100.0 %
Test CRC A0247444
Copy CRC A0247444
Track not present in AccurateRip database
Copy OK

None of the tracks are present in the AccurateRip database

No errors occurred

End of status report

End of status report

REM GENRE Rock
REM DATE 1979
REM DISCID EA0B550F
REM COMMENT “ExactAudioCopy v0.99pb4”
PERFORMER “The Only Ones”
TITLE “Baby’s Got A Gun (Remastered & Expanded 2009)”
FILE “The Only Ones – 1979 – Baby’s Got A Gun (Remastered & Expanded 2009)\01 – The Happy Pilgrim.wav” WAVE
TRACK 01 AUDIO
TITLE “The Happy Pilgrim”
PERFORMER “The Only Ones”
INDEX 01 00:00:00
FILE “The Only Ones – 1979 – Baby’s Got A Gun (Remastered & Expanded 2009)\02 – Why Don’t You Kill Yourself .wav” WAVE
TRACK 02 AUDIO
TITLE “Why Don’t You Kill Yourself?”
PERFORMER “The Only Ones”
INDEX 01 00:00:00
TRACK 03 AUDIO
TITLE “Me And My Shadow”
PERFORMER “The Only Ones”
INDEX 00 02:43:17
FILE “The Only Ones – 1979 – Baby’s Got A Gun (Remastered & Expanded 2009)\03 – Me And My Shadow.wav” WAVE
INDEX 01 00:00:00
FILE “The Only Ones – 1979 – Baby’s Got A Gun (Remastered & Expanded 2009)\04 – Deadly Nightshade.wav” WAVE
TRACK 04 AUDIO
TITLE “Deadly Nightshade”
PERFORMER “The Only Ones”
INDEX 01 00:00:00
TRACK 05 AUDIO
TITLE “Strange Mouth”
PERFORMER “The Only Ones”
INDEX 00 03:07:54
FILE “The Only Ones – 1979 – Baby’s Got A Gun (Remastered & Expanded 2009)\05 – Strange Mouth.wav” WAVE
INDEX 01 00:00:00
FILE “The Only Ones – 1979 – Baby’s Got A Gun (Remastered & Expanded 2009)\06 – The Big Sleep.wav” WAVE
TRACK 06 AUDIO
TITLE “The Big Sleep”
PERFORMER “The Only Ones”
INDEX 01 00:00:00
TRACK 07 AUDIO
TITLE “Oh Lucinda (Love Becomes A Habit)”
PERFORMER “The Only Ones”
INDEX 00 04:58:38
FILE “The Only Ones – 1979 – Baby’s Got A Gun (Remastered & Expanded 2009)\07 – Oh Lucinda (Love Becomes A Habit).wav” WAVE
INDEX 01 00:00:00
FILE “The Only Ones – 1979 – Baby’s Got A Gun (Remastered & Expanded 2009)\08 – Re-Union.wav” WAVE
TRACK 08 AUDIO
TITLE “Re-Union”
PERFORMER “The Only Ones”
INDEX 01 00:00:00
FILE “The Only Ones – 1979 – Baby’s Got A Gun (Remastered & Expanded 2009)\09 – Trouble In The World.wav” WAVE
TRACK 09 AUDIO
TITLE “Trouble In The World”
PERFORMER “The Only Ones”
INDEX 01 00:00:00
FILE “The Only Ones – 1979 – Baby’s Got A Gun (Remastered & Expanded 2009)\10 – Castle Built On Sand.wav” WAVE
TRACK 10 AUDIO
TITLE “Castle Built On Sand”
PERFORMER “The Only Ones”
INDEX 01 00:00:00
TRACK 11 AUDIO
TITLE “Fools”
PERFORMER “The Only Ones”
INDEX 00 01:51:21
FILE “The Only Ones – 1979 – Baby’s Got A Gun (Remastered & Expanded 2009)\11 – Fools.wav” WAVE
INDEX 01 00:00:00
FILE “The Only Ones – 1979 – Baby’s Got A Gun (Remastered & Expanded 2009)\12 – My Way Out Of Here.wav” WAVE
TRACK 12 AUDIO
TITLE “My Way Out Of Here”
PERFORMER “The Only Ones”
INDEX 01 00:00:00
FILE “The Only Ones – 1979 – Baby’s Got A Gun (Remastered & Expanded 2009)\13 – Baby’s Got A Gun.wav” WAVE
TRACK 13 AUDIO
TITLE “Baby’s Got A Gun”
PERFORMER “The Only Ones”
INDEX 01 00:00:00
TRACK 14 AUDIO
TITLE “The Big Sleep (Advision Studio Session 1979)”
PERFORMER “The Only Ones”
INDEX 00 01:56:50
FILE “The Only Ones – 1979 – Baby’s Got A Gun (Remastered & Expanded 2009)\14 – The Big Sleep (Advision Studio Session 1979).wav” WAVE
INDEX 01 00:00:00
TRACK 15 AUDIO
TITLE “Your Chosen Life”
PERFORMER “The Only Ones”
INDEX 00 04:37:66
FILE “The Only Ones – 1979 – Baby’s Got A Gun (Remastered & Expanded 2009)\15 – Your Chosen Life.wav” WAVE
INDEX 01 00:00:00


Leave a Reply

Your email address will not be published. Required fields are marked *

Enter the text from the image below
 

This site uses Akismet to reduce spam. Learn how your comment data is processed.