The Offspring – Why Don’t You Get A Job (Japanese Edition)




Artist: The Offspring
Year: 1999
Genre: Rock
Notes: Discogs
Add. Notes: Japanese Edition
Cover incl.: Yes
Encoder: FLAC
Bitrate: ~1000 kBit/s (44.1 kHz/16 Bit/s)
Log & Cue incl.: Yes
Size: 120,37 MB
Password: “slam” (without ” “)


All Downloads/Hosters are compatible

Download 1
Turbobit.net
Rapidgator.net
UploadByte.com
UploadEver.com
JustUpload.io
Download 2
Turbobit.net
Rapidgator.net
UploadByte.com
UploadEver.com
JustUpload.io
Download 3
Turbobit.net
Rapidgator.net
UploadByte.com
UploadEver.com
JustUpload.io

Tracklist:

1 - Why Don't You Get A Job? (Album Version) - 2:50
2 - Pretty Fly [For A White Guy] (The Baka Boyz Low 
Rider Remix) - 3:02
3 - I Wanna Be Sedated - 2:20
4 - Beheaded (1999) - 2:40
5 - Why Don't You Get A Job? (Baka Boyz Remix) - 4:19

EAC-Log, CUE-Sheed & NFO:

Click to open spoiler
Exact Audio Copy V1.0 beta 3 from 29. August 2011

EAC extraction logfile from 12. December 2013, 14:00

The Offspring / Why Don’t You Get A Job? (ESCA 8020)

Used drive : PLEXTOR DVDR PX-760A Adapter: 1 ID: 0

Read mode : Secure
Utilize accurate stream : Yes
Defeat audio cache : Yes
Make use of C2 pointers : No

Read offset correction : 30
Overread into Lead-In and Lead-Out : No
Fill up missing offset samples with silence : Yes
Delete leading and trailing silent blocks : No
Null samples used in CRC calculations : Yes
Used interface : Native Win32 interface for Win NT & 2000

Used output format : User Defined Encoder
Selected bitrate : 1024 kBit/s
Quality : High
Add ID3 tag : No
Command line compressor : C:\Program Files (x86)\Exact Audio Copy\Flac\flac.exe
Additional command line options : -V -8 -T “Date=%year%” -T “Genre=%genre%” %source%

TOC of the extracted CD

Track | Start | Length | Start sector | End sector
———————————————————
1 | 0:00.00 | 2:50.10 | 0 | 12759
2 | 2:50.10 | 3:02.57 | 12760 | 26466
3 | 5:52.67 | 2:20.23 | 26467 | 36989
4 | 8:13.15 | 2:40.05 | 36990 | 48994
5 | 10:53.20 | 4:19.05 | 48995 | 68424

Range status and errors

Selected range

Filename F:\bki71\The Offspring\The Offspring – Why Don’t You Get A Job (ESCA 8020).wav

Peak level 99.3 %
Extraction speed 2.1 X
Range quality 99.9 %
Test CRC CAEB3010
Copy CRC CAEB3010
Copy OK

No errors occurred

AccurateRip summary

Track 1 not present in database
Track 2 not present in database
Track 3 not present in database
Track 4 not present in database
Track 5 not present in database

None of the tracks are present in the AccurateRip database

End of status report

==== Log checksum EF11631AEC7FDE9549C3E7E836AD37F494776B323C6E5F388B49E16967147AE5 ====

REM GENRE “Punk Rock”
REM DATE 1999
REM DISCID 3A039005
REM COMMENT “ExactAudioCopy v1.0b3”
PERFORMER “The Offspring”
TITLE “Why Don’t You Get A Job? (ESCA 8020)”
FILE “The Offspring – Why Don’t You Get A Job (ESCA 8020).flac” WAVE
TRACK 01 AUDIO
TITLE “Why Don’t You Get A Job?”
PERFORMER “The Offspring”
INDEX 01 00:00:00
TRACK 02 AUDIO
TITLE “Pretty Fly (For A White Guy) (The Baka Boyz Low Rider Remix)”
PERFORMER “The Offspring”
INDEX 01 02:50:10
TRACK 03 AUDIO
TITLE “I Wanna Be Sedated”
PERFORMER “The Offspring”
INDEX 01 05:52:67
TRACK 04 AUDIO
TITLE “Beheaded (1999)”
PERFORMER “The Offspring”
INDEX 01 08:13:15
TRACK 05 AUDIO
TITLE “Why Don’t You Get A Job? (Baka Boyz Remix)”
PERFORMER “The Offspring”
INDEX 01 10:53:20

Leave a Reply

Your email address will not be published. Required fields are marked *

This site uses Akismet to reduce spam. Learn how your comment data is processed.