The Offspring – The Offspring (Japanese Edition)




Artist: The Offspring
Year: 1989/2002
Genre: Punk
Notes: Discogs
Add. Notes: Japanese Edition
Cover incl.: Yes
Encoder: FLAC
Bitrate: ~1000 kBit/s (44.1 kHz/16 Bit/s)
Log & Cue incl.: Yes
Size: 228,7 MB
Password: “slam” (without ” “)


All Downloads/Hosters are compatible

Download 1
KatFile.com
Turbobit.net
FileFactory.com
Rapidgator.net
Download 2
KatFile.com
Turbobit.net
FileFactory.com
Rapidgator.net

Tracklist:

1 - Jennifer Lost The War - 2:35
2 - Elders - 2:11
3 - Out On Patrol - 2:32
4 - Crossroads - 2:47
5 - Demons - 3:10
6 - Beheaded - 2:52
7 - Tehran - 3:06
8 - A Thousand Days - 2:11
9 - Blackball - 3:24
10 - I'll Be Waiting - 3:11

EAC-Log, CUE-Sheed & NFO:

Click to open spoiler
Exact Audio Copy V0.99 prebeta 4 from 23. January 2008

EAC extraction logfile from 24. February 2011, 19:47

The Offspring / The Offspring

Used drive : ASUS DRW-1612BL Adapter: 0 ID: 0

Read mode : Secure
Utilize accurate stream : Yes
Defeat audio cache : Yes
Make use of C2 pointers : No

Read offset correction : 6
Overread into Lead-In and Lead-Out : No
Fill up missing offset samples with silence : Yes
Delete leading and trailing silent blocks : No
Null samples used in CRC calculations : Yes
Used interface : Installed external ASPI interface

Used output format : User Defined Encoder
Selected bitrate : 768 kBit/s
Quality : High
Add ID3 tag : No
Command line compressor : C:\Program Files (x86)\Exact Audio Copy\Flac\flac.exe
Additional command line options : -6 -V %s

TOC of the extracted CD

Track | Start | Length | Start sector | End sector
———————————————————
1 | 0:00.00 | 2:35.22 | 0 | 11646
2 | 2:35.22 | 2:11.13 | 11647 | 21484
3 | 4:46.35 | 2:32.42 | 21485 | 32926
4 | 7:19.02 | 2:48.35 | 32927 | 45561
5 | 10:07.37 | 3:10.30 | 45562 | 59841
6 | 13:17.67 | 2:51.73 | 59842 | 72739
7 | 16:09.65 | 3:06.62 | 72740 | 86751
8 | 19:16.52 | 2:11.23 | 86752 | 96599
9 | 21:28.00 | 3:24.12 | 96600 | 111911
10 | 24:52.12 | 3:11.28 | 111912 | 126264

Range status and errors

Selected range

Filename E:\My Doom\The Offspring – The Offspring.wav

Peak level 100.0 %
Range quality 100.0 %
Test CRC 8A1533C3
Copy CRC 8A1533C3
Copy OK

No errors occurred

AccurateRip summary

Track 1 not present in database
Track 2 not present in database
Track 3 not present in database
Track 4 not present in database
Track 5 not present in database
Track 6 not present in database
Track 7 not present in database
Track 8 not present in database
Track 9 not present in database
Track 10 not present in database

None of the tracks are present in the AccurateRip database

End of status report

REM GENRE Rock
REM DATE 1995
REM DISCID 9006930A
REM COMMENT “ExactAudioCopy v0.99pb4”
PERFORMER “The Offspring”
TITLE “The Offspring”
FILE “The Offspring – The Offspring.flac” WAVE
TRACK 01 AUDIO
TITLE “Jennifer Lost the War”
PERFORMER “The Offspring”
INDEX 01 00:00:00
TRACK 02 AUDIO
TITLE “Elders”
PERFORMER “The Offspring”
INDEX 01 02:35:22
TRACK 03 AUDIO
TITLE “Out on Patrol”
PERFORMER “The Offspring”
INDEX 01 04:46:35
TRACK 04 AUDIO
TITLE “Crossroads”
PERFORMER “The Offspring”
INDEX 01 07:19:02
TRACK 05 AUDIO
TITLE “Demons”
PERFORMER “The Offspring”
INDEX 00 10:06:32
INDEX 01 10:07:37
TRACK 06 AUDIO
TITLE “Beheaded”
PERFORMER “The Offspring”
INDEX 01 13:17:67
TRACK 07 AUDIO
TITLE “Tehran”
PERFORMER “The Offspring”
INDEX 00 15:54:62
INDEX 01 16:09:65
TRACK 08 AUDIO
TITLE “A Thousand Days”
PERFORMER “The Offspring”
INDEX 01 19:16:52
TRACK 09 AUDIO
TITLE “Blackball”
PERFORMER “The Offspring”
INDEX 01 21:28:00
TRACK 10 AUDIO
TITLE “I’ll Be Waiting”
PERFORMER “The Offspring”
INDEX 01 24:52:12


Leave a Reply

Your email address will not be published. Required fields are marked *

This site uses Akismet to reduce spam. Learn how your comment data is processed.