The Offspring – Splinter




No Cover available

Artist: The Offspring
Year: 2003
Genre: Punk
Notes: Discogs
Add. Notes:
Watch Songs on: YouTube
Cover incl.: Yes
Encoder: FLAC
Bitrate: ~900 kBit/s (44.1 kHz/16 Bit/s)
Log & Cue incl.: Yes/Yes
Size: 231,8 MB
Password: “slam” (without ” “)


All Downloads/Hosters are compatible

Download 1
KatFile.com
Turbobit.net
FileFactory.com
Rapidgator.net
Download 2
KatFile.com
Turbobit.net
FileFactory.com
Rapidgator.net

Tracklist:

1 - Neocon 
2 - The Noose 
3 - Long Way Home 
4 - Hit That 
5 - Race Against Myself 
6 - (Can't Get My) Head Around You 
7 - The Worst Hangover Ever 
8 - Never Gonna Find Me 
9 - Lightning Rod 
10 - Spare Me The Details 
11 - Da Hui 
12 - When You're In Prison 

EAC-Log, CUE-Sheed & NFO:

Click to open spoiler
EAC extraction logfile from 10. September 2007, 14:48 for CD
The Offspring / Splinter

Used drive : HL-DT-STDVD-RAM GSA-H22N Adapter: 0 ID: 0
Read mode : Secure with NO C2, accurate stream, disable cache
Read offset correction : 102
Overread into Lead-In and Lead-Out : No

Used output format : C:\Program Files\Exact Audio Copy\flac.exe (User Defined Encoder)
192 kBit/s
Additional command line options : -8 -A tukey(0.25) -A gauss(0.1875) -b 4096 -V -T “artist=%a” -T “title=%t” -T “album=%g” -T “date=%y” -T “tracknumber=%n” -T “genre=%m” %s –sector-align

Other options :
Fill up missing offset samples with silence : Yes
Delete leading and trailing silent blocks : No
Installed external ASPI interface

Track 1
Filename C:\Users\MDG User\Desktop\0 Music\Albums\Offspring, The\The Offspring – 2003 – Splinter [FLAC]\01 – The Offspring – Neocon.wav

Pre-gap length 0:00:02.00

Peak level 100.0 %
Track quality 100.0 %
Test CRC 74A2BBFF
Copy CRC 74A2BBFF
Copy OK

Track 2
Filename C:\Users\MDG User\Desktop\0 Music\Albums\Offspring, The\The Offspring – 2003 – Splinter [FLAC]\02 – The Offspring – The Noose.wav

Peak level 100.0 %
Track quality 100.0 %
Test CRC 35B4B442
Copy CRC 35B4B442
Copy OK

Track 3
Filename C:\Users\MDG User\Desktop\0 Music\Albums\Offspring, The\The Offspring – 2003 – Splinter [FLAC]\03 – The Offspring – Long Way Home.wav

Peak level 100.0 %
Track quality 99.9 %
Test CRC 593F2133
Copy CRC 593F2133
Copy OK

Track 4
Filename C:\Users\MDG User\Desktop\0 Music\Albums\Offspring, The\The Offspring – 2003 – Splinter [FLAC]\04 – The Offspring – Hit That.wav

Peak level 100.0 %
Track quality 100.0 %
Test CRC 0A28C545
Copy CRC 0A28C545
Copy OK

Track 5
Filename C:\Users\MDG User\Desktop\0 Music\Albums\Offspring, The\The Offspring – 2003 – Splinter [FLAC]\05 – The Offspring – Race Against Myself.wav

Pre-gap length 0:00:00.66

Peak level 100.0 %
Track quality 99.9 %
Test CRC 881A600A
Copy CRC 881A600A
Copy OK

Track 6
Filename C:\Users\MDG User\Desktop\0 Music\Albums\Offspring, The\The Offspring – 2003 – Splinter [FLAC]\06 – The Offspring – (Can’t Get My) Head Around You.wav

Peak level 100.0 %
Track quality 100.0 %
Test CRC A706D6DB
Copy CRC A706D6DB
Copy OK

Track 7
Filename C:\Users\MDG User\Desktop\0 Music\Albums\Offspring, The\The Offspring – 2003 – Splinter [FLAC]\07 – The Offspring – The Worst Hangover Ever.wav

Peak level 100.0 %
Track quality 100.0 %
Test CRC D7FFD0A5
Copy CRC D7FFD0A5
Copy OK

Track 8
Filename C:\Users\MDG User\Desktop\0 Music\Albums\Offspring, The\The Offspring – 2003 – Splinter [FLAC]\08 – The Offspring – Never Gonna Find Me.wav

Pre-gap length 0:00:00.13

Peak level 100.0 %
Track quality 100.0 %
Test CRC 13E21847
Copy CRC 13E21847
Copy OK

Track 9
Filename C:\Users\MDG User\Desktop\0 Music\Albums\Offspring, The\The Offspring – 2003 – Splinter [FLAC]\09 – The Offspring – Lightning Rod.wav

Peak level 100.0 %
Track quality 100.0 %
Test CRC 36F67E42
Copy CRC 36F67E42
Copy OK

Track 10
Filename C:\Users\MDG User\Desktop\0 Music\Albums\Offspring, The\The Offspring – 2003 – Splinter [FLAC]\10 – The Offspring – Spare Me The Details.wav

Pre-gap length 0:00:00.24

Peak level 100.0 %
Track quality 100.0 %
Test CRC 1DBA8014
Copy CRC 1DBA8014
Copy OK

Track 11
Filename C:\Users\MDG User\Desktop\0 Music\Albums\Offspring, The\The Offspring – 2003 – Splinter [FLAC]\11 – The Offspring – Da Hui.wav

Peak level 100.0 %
Track quality 100.0 %
Test CRC 68CDBF04
Copy CRC 68CDBF04
Copy OK

Track 12
Filename C:\Users\MDG User\Desktop\0 Music\Albums\Offspring, The\The Offspring – 2003 – Splinter [FLAC]\12 – The Offspring – When You’re In Prison.wav

Pre-gap length 0:00:09.84

Peak level 99.2 %
Track quality 99.9 %
Test CRC B82E1F37
Copy CRC B82E1F37
Copy OK

No errors occured

End of status report

REM GENRE “Punk-Rock”
REM DATE 2003
REM DISCID 9D07820C
REM COMMENT “ExactAudioCopy v0.99pb4”
PERFORMER “The Offspring”
TITLE “Splinter”
FILE “01 Neocon.flac” WAVE
TRACK 01 AUDIO
TITLE “Neocon”
INDEX 01 00:00:00
FILE “02 The Noose.flac” WAVE
TRACK 02 AUDIO
TITLE “The Noose”
INDEX 01 00:00:00
FILE “03 Long Way Home.flac” WAVE
TRACK 03 AUDIO
TITLE “Long Way Home”
INDEX 01 00:00:00
FILE “04 Hit That.flac” WAVE
TRACK 04 AUDIO
TITLE “Hit That”
INDEX 01 00:00:00
FILE “05 Race Against Myself.flac” WAVE
TRACK 05 AUDIO
TITLE “Race Against Myself”
PREGAP 00:00:50
INDEX 01 00:00:00
FILE “06 (Can’t Get My) Head Around You.flac” WAVE
TRACK 06 AUDIO
TITLE “(Can’t Get My) Head Around You”
INDEX 01 00:00:00
FILE “07 The Worst Hangover Ever.flac” WAVE
TRACK 07 AUDIO
TITLE “The Worst Hangover Ever”
INDEX 01 00:00:00
FILE “08 Never Gonna Find Me.flac” WAVE
TRACK 08 AUDIO
TITLE “Never Gonna Find Me”
PREGAP 00:00:10
INDEX 01 00:00:00
FILE “09 Lightning Rod.flac” WAVE
TRACK 09 AUDIO
TITLE “Lightning Rod”
INDEX 01 00:00:00
FILE “10 Spare Me The Details.flac” WAVE
TRACK 10 AUDIO
TITLE “Spare Me The Details”
PREGAP 00:00:18
INDEX 01 00:00:00
FILE “11 Da Hui.flac” WAVE
TRACK 11 AUDIO
TITLE “Da Hui”
INDEX 01 00:00:00
FILE “12 When You’re In Prison.flac” WAVE
TRACK 12 AUDIO
TITLE “When You’re In Prison”
PREGAP 00:09:63
INDEX 01 00:00:00


Leave a Reply

Your email address will not be published. Required fields are marked *

This site uses Akismet to reduce spam. Learn how your comment data is processed.