The Offspring – Splinter (Japanese Edition)




No Cover available

Artist: The Offspring
Year: 2003
Genre: Punk
Notes: Discogs
Add. Notes: Japanese Edition
Watch Songs on: YouTube
Cover incl.: Yes
Encoder: FLAC
Bitrate: ~900 kBit/s (44.1 kHz/16 Bit/s)
Log & Cue incl.: Yes/Yes
Size: 312,6 MB
Password: “slam” (without ” “)


All Downloads/Hosters are compatible

Download 1
KatFile.com
Turbobit.net
FileFactory.com
Rapidgator.net
Download 2
KatFile.com
Turbobit.net
FileFactory.com
Rapidgator.net

Tracklist:

1 - Neocon 
2 - The Noose 
3 - Long Way Home 
4 - Hit That 
5 - Race Against Myself 
6 - (Can't Get My) Head Around You 
7 - The Worst Hangover Ever 
8 - Never Gonna Find Me 
9 - Lightning Rod 
10 - Spare Me The Details 
11 - Da Hui 
12 - When You're In Prison 
13 - Defy You (Acoustic)

EAC-Log, CUE-Sheed & NFO:

Click to open spoiler
Exact Audio Copy V0.99 prebeta 4 from 23. January 2008

EAC extraction logfile from 10. November 2010, 23:27

The Offspring / Splinter (SICP 500)

Used drive : PLEXTOR DVDR PX-760A Adapter: 0 ID: 0

Read mode : Secure
Utilize accurate stream : Yes
Defeat audio cache : Yes
Make use of C2 pointers : No

Read offset correction : 30
Overread into Lead-In and Lead-Out : No
Fill up missing offset samples with silence : Yes
Delete leading and trailing silent blocks : No
Null samples used in CRC calculations : Yes
Used interface : Installed external ASPI interface

Used output format : Internal WAV Routines
Sample format : 44.100 Hz; 16 Bit; Stereo

TOC of the extracted CD

Track | Start | Length | Start sector | End sector
———————————————————
1 | 0:00.00 | 1:06.25 | 0 | 4974
2 | 1:06.25 | 3:18.55 | 4975 | 19879
3 | 4:25.05 | 2:23.33 | 19880 | 30637
4 | 6:48.38 | 2:49.30 | 30638 | 43342
5 | 9:37.68 | 3:32.12 | 43343 | 59254
6 | 13:10.05 | 2:14.58 | 59255 | 69362
7 | 15:24.63 | 2:58.04 | 69363 | 82716
8 | 18:22.67 | 2:38.71 | 82717 | 94637
9 | 21:01.63 | 3:20.32 | 94638 | 109669
10 | 24:22.20 | 3:24.18 | 109670 | 124987
11 | 27:46.38 | 1:42.10 | 124988 | 132647
12 | 29:28.48 | 3:32.67 | 132648 | 148614
13 | 33:01.40 | 3:55.49 | 148615 | 166288
14 | 39:29.14 | 25:04.64 | 177689 | 290552

Range status and errors

Selected range

Filename D:\bki71\The Offspring – Splinter (SICP 500).wav

Peak level 99.9 %
Range quality 99.9 %
Test CRC 6A65105E
Copy CRC 6A65105E
Copy OK

No errors occurred

AccurateRip summary

Track 1 accurately ripped (confidence 1) [63A0510B]
Track 2 accurately ripped (confidence 1) [3A639BB9]
Track 3 accurately ripped (confidence 1) [09EF8AAB]
Track 4 accurately ripped (confidence 1) [C8ACDF4A]
Track 5 accurately ripped (confidence 1) [7A4BFE4A]
Track 6 accurately ripped (confidence 1) [DFFECE91]
Track 7 accurately ripped (confidence 1) [F295B266]
Track 8 accurately ripped (confidence 1) [201BCC20]
Track 9 accurately ripped (confidence 1) [4097A014]
Track 10 accurately ripped (confidence 1) [5810BF99]
Track 11 accurately ripped (confidence 1) [EBC3C3B1]
Track 12 accurately ripped (confidence 1) [EEE80390]
Track 13 accurately ripped (confidence 1) [93E623A8]

All tracks accurately ripped

End of status report

REM GENRE “Punk Rock”
REM DATE 2003
REM DISCID C30F220E
REM COMMENT “ExactAudioCopy v0.99pb4”
PERFORMER “The Offspring”
TITLE “Splinter (SICP 500)”
FILE “The Offspring – Splinter (SICP 500).flac” WAVE
TRACK 01 AUDIO
TITLE “Neocon”
PERFORMER “The Offspring”
INDEX 01 00:00:00
TRACK 02 AUDIO
TITLE “The Noose”
PERFORMER “The Offspring”
INDEX 01 01:06:25
TRACK 03 AUDIO
TITLE “Long Way Home”
PERFORMER “The Offspring”
INDEX 01 04:25:05
TRACK 04 AUDIO
TITLE “Hit That”
PERFORMER “The Offspring”
INDEX 01 06:48:38
TRACK 05 AUDIO
TITLE “Race Against Myself”
PERFORMER “The Offspring”
INDEX 00 09:37:18
INDEX 01 09:37:68
TRACK 06 AUDIO
TITLE “(Can’t Get My) Head Around You”
PERFORMER “The Offspring”
INDEX 01 13:10:05
TRACK 07 AUDIO
TITLE “The Worst Hangover Ever”
PERFORMER “The Offspring”
INDEX 01 15:24:63
TRACK 08 AUDIO
TITLE “Never Gonna Find Me”
PERFORMER “The Offspring”
INDEX 00 18:22:58
INDEX 01 18:22:67
TRACK 09 AUDIO
TITLE “Lighting Rod”
PERFORMER “The Offspring”
INDEX 01 21:01:63
TRACK 10 AUDIO
TITLE “Spare Me The Details”
PERFORMER “The Offspring”
INDEX 00 24:22:03
INDEX 01 24:22:20
TRACK 11 AUDIO
TITLE “Da Hui”
PERFORMER “The Offspring”
INDEX 01 27:46:38
TRACK 12 AUDIO
TITLE “When You’re In Prison”
PERFORMER “The Offspring”
INDEX 00 29:18:65
INDEX 01 29:28:48
TRACK 13 AUDIO
TITLE “Defy You (Acoustic) [Bonus Track for Japan]”
PERFORMER “The Offspring”
INDEX 00 32:01:53
INDEX 01 33:01:40


Leave a Reply

Your email address will not be published. Required fields are marked *

Enter the text from the image below
 

This site uses Akismet to reduce spam. Learn how your comment data is processed.