The Offspring – Smash (Japanese Edition)




Artist: The Offspring
Year: 1994
Genre: Punk
Notes: Discogs
Add. Notes: Japanese Edition
Cover incl.: Yes
Encoder: FLAC
Bitrate: ~900 kBit/s (44.1 kHz/16 Bit/s)
Log & Cue incl.: Yes
Size: 326,33 MB
Password: “slam” (without ” “)


All Downloads/Hosters are compatible

Download 1
Turbobit.net
Rapidgator.net
UploadEver.com
JustUpload.io
HexUpload.net
Download 2
Turbobit.net
Rapidgator.net
UploadEver.com
JustUpload.io
HexUpload.net
Download 3
Turbobit.net
Rapidgator.net
UploadEver.com
JustUpload.io
HexUpload.net

Tracklist:

1 - Time To Relax - 0:26
2 - Nitro (Youth Energy) - 2:26
3 - Bad Habit - 3:43
4 - Gotta Get Away - 3:53
5 - Genocide - 3:32
6 - Something To Believe In - 3:18
7 - Come Out And Play - 3:17
8 - Self Esteem - 4:17
9 - It'll Be A Long Time - 2:43
10 - Killboy Powerhead - 2:02
11 - What Happened To You? - 2:12
12 - So Alone - 1:17
13 - Not The One - 2:54
14.1 - Smash - 2:53
14.2 - Untitled - 1:15
14.3 - Untitled - 5:00
14.4 - Untitled - 1:32

EAC-Log, CUE-Sheed & NFO:

Click to open spoiler
Exact Audio Copy V0.99 prebeta 4 from 23. January 2008

EAC extraction logfile from 11. May 2011, 14:45

The Offspring / Smash (ESCA 6075)

Used drive : PLEXTOR DVDR PX-760A Adapter: 0 ID: 0

Read mode : Secure
Utilize accurate stream : Yes
Defeat audio cache : Yes
Make use of C2 pointers : No

Read offset correction : 30
Overread into Lead-In and Lead-Out : No
Fill up missing offset samples with silence : Yes
Delete leading and trailing silent blocks : No
Null samples used in CRC calculations : Yes
Used interface : Installed external ASPI interface

Used output format : Internal WAV Routines
Sample format : 44.100 Hz; 16 Bit; Stereo

TOC of the extracted CD

Track | Start | Length | Start sector | End sector
———————————————————
1 | 0:00.00 | 0:26.02 | 0 | 1951
2 | 0:26.02 | 2:26.68 | 1952 | 12969
3 | 2:52.70 | 3:43.70 | 12970 | 29764
4 | 6:36.65 | 3:53.67 | 29765 | 47306
5 | 10:30.57 | 3:26.50 | 47307 | 62806
6 | 13:57.32 | 3:22.28 | 62807 | 77984
7 | 17:19.60 | 3:17.57 | 77985 | 92816
8 | 20:37.42 | 4:17.60 | 92817 | 112151
9 | 24:55.27 | 2:43.23 | 112152 | 124399
10 | 27:38.50 | 2:02.52 | 124400 | 133601
11 | 29:41.27 | 2:12.13 | 133602 | 143514
12 | 31:53.40 | 1:17.17 | 143515 | 149306
13 | 33:10.57 | 2:54.28 | 149307 | 162384
14 | 36:05.10 | 10:40.40 | 162385 | 210424

Range status and errors

Selected range

Filename D:\bki71\The Offspring – Smash (ESCA 6075).wav

Peak level 100.0 %
Range quality 100.0 %
Test CRC D77B432E
Copy CRC D77B432E
Copy OK

No errors occurred

AccurateRip summary

Track 1 accurately ripped (confidence 2) [8F04FDF9]
Track 2 accurately ripped (confidence 2) [CD172FAD]
Track 3 accurately ripped (confidence 2) [AB2FF0AF]
Track 4 accurately ripped (confidence 2) [A55CE23D]
Track 5 accurately ripped (confidence 2) [C61EB375]
Track 6 accurately ripped (confidence 2) [CBB01EA2]
Track 7 accurately ripped (confidence 2) [329574FE]
Track 8 accurately ripped (confidence 2) [F5D6CEB2]
Track 9 accurately ripped (confidence 2) [0C7F3868]
Track 10 accurately ripped (confidence 2) [A8086D89]
Track 11 accurately ripped (confidence 2) [9CE50BD9]
Track 12 accurately ripped (confidence 2) [A0911FDA]
Track 13 accurately ripped (confidence 2) [0DBE41CE]
Track 14 accurately ripped (confidence 2) [42808003]

All tracks accurately ripped

End of status report

REM GENRE “Punk Rock”
REM DATE 1994
REM DISCID CA0AF50E
REM COMMENT “ExactAudioCopy v0.99pb4”
PERFORMER “The Offspring”
TITLE “Smash (ESCA 6075)”
FILE “The Offspring – Smash (ESCA 6075).flac” WAVE
TRACK 01 AUDIO
TITLE “Time To Relax”
PERFORMER “The Offspring”
INDEX 01 00:00:00
TRACK 02 AUDIO
TITLE “Nitro (Youth Energy)”
PERFORMER “The Offspring”
INDEX 01 00:26:02
TRACK 03 AUDIO
TITLE “Bad Habit”
PERFORMER “The Offspring”
INDEX 01 02:52:70
TRACK 04 AUDIO
TITLE “Gotta Get Away”
PERFORMER “The Offspring”
INDEX 01 06:36:65
TRACK 05 AUDIO
TITLE “Genocide”
PERFORMER “The Offspring”
INDEX 01 10:30:57
TRACK 06 AUDIO
TITLE “Something To Believe In”
PERFORMER “The Offspring”
INDEX 01 13:57:32
TRACK 07 AUDIO
TITLE “Come Out And Play”
PERFORMER “The Offspring”
INDEX 01 17:19:60
TRACK 08 AUDIO
TITLE “Self Esteem”
PERFORMER “The Offspring”
INDEX 01 20:37:42
TRACK 09 AUDIO
TITLE “It’ll Be A Long Time”
PERFORMER “The Offspring”
INDEX 01 24:55:27
TRACK 10 AUDIO
TITLE “Killboy Powerhead”
PERFORMER “The Offspring”
INDEX 01 27:38:50
TRACK 11 AUDIO
TITLE “What Happened To You?”
PERFORMER “The Offspring”
INDEX 01 29:41:27
TRACK 12 AUDIO
TITLE “So Alone”
PERFORMER “The Offspring”
INDEX 01 31:53:40
TRACK 13 AUDIO
TITLE “Not The One”
PERFORMER “The Offspring”
INDEX 01 33:10:57
TRACK 14 AUDIO
TITLE “Smash”
PERFORMER “The Offspring”
INDEX 01 36:05:10

Leave a Reply

Your email address will not be published. Required fields are marked *

This site uses Akismet to reduce spam. Learn how your comment data is processed.