The Offspring – Rise And Fall, Rage And Grace




No Cover available

Artist: The Offspring
Year: 2008
Genre: Punk
Notes: Discogs
Add. Notes:
Watch Songs on: YouTube
Cover incl.: Yes
Encoder: FLAC
Bitrate: ~1000 kBit/s (44.1 kHz/16 Bit/s)
Log & Cue incl.: Yes/Yes
Size: 355,4 MB
Password: “slam” (without ” “)


All Downloads/Hosters are compatible

Download 1
KatFile.com
Turbobit.net
FileFactory.com
Rapidgator.net
Download 2
KatFile.com
Turbobit.net
FileFactory.com
Rapidgator.net

Tracklist:

1. Half-Truism
2. Trust In You
3. You're Gonna Go Far, Kid
4. Hammerhead
5. A Lot Like Me
6. Takes Me Nowhere
7. Kristy, Are You Doing Ok
8. Nothingtown
9. Stuff Is Messed Up
10. Fix You
11. Let's Hear It For Rock Bottom
12. Rise And Fall

EAC-Log, CUE-Sheed & NFO:

Click to open spoiler
Exact Audio Copy V0.99 prebeta 4 from 23. January 2008

EAC extraction logfile from 25. October 2008, 12:04

The Offspring / Rise And Fall, Rage And Grace

Used drive : HL-DT-STDVDRRW GSA-H20L Adapter: 2 ID: 0

Read mode : Secure
Utilize accurate stream : Yes
Defeat audio cache : Yes
Make use of C2 pointers : No

Read offset correction : 102
Overread into Lead-In and Lead-Out : No
Fill up missing offset samples with silence : Yes
Delete leading and trailing silent blocks : No
Null samples used in CRC calculations : Yes
Used interface : Native Win32 interface for Win NT & 2000
Gap handling : Appended to previous track

Used output format : User Defined Encoder
Selected bitrate : 128 kBit/s
Quality : High
Add ID3 tag : No
Command line compressor : C:\Program Files\FLAC\flac.exe
Additional command line options : -V -8 -T “artist=%a” -T “title=%t” -T “album=%g” -T “date=%y” -T “tracknumber=%n” -T “genre=%m” %s

TOC of the extracted CD

Track | Start | Length | Start sector | End sector
———————————————————
1 | 0:00.00 | 3:25.71 | 0 | 15445
2 | 3:25.71 | 3:09.12 | 15446 | 29632
3 | 6:35.08 | 2:57.62 | 29633 | 42969
4 | 9:32.70 | 4:38.33 | 42970 | 63852
5 | 14:11.28 | 4:28.04 | 63853 | 83956
6 | 18:39.32 | 2:59.38 | 83957 | 97419
7 | 21:38.70 | 3:42.65 | 97420 | 114134
8 | 25:21.60 | 3:29.25 | 114135 | 129834
9 | 28:51.10 | 3:32.48 | 129835 | 145782
10 | 32:23.58 | 4:18.63 | 145783 | 165195
11 | 36:42.46 | 4:04.43 | 165196 | 183538
12 | 40:47.14 | 2:59.09 | 183539 | 196972

Track 1

Filename K:\Torrents\The Offspring – Rise And Fall, Rage And Grace [2008]\01 – Half-Truism.wav

Pre-gap length 0:00:02.00

Peak level 99.9 %
Track quality 100.0 %
Test CRC C891A37B
Copy CRC C891A37B
Accurately ripped (confidence 15) [68FCED5E]
Copy OK

Track 2

Filename K:\Torrents\The Offspring – Rise And Fall, Rage And Grace [2008]\02 – Trust In You.wav

Peak level 99.9 %
Track quality 100.0 %
Test CRC 0DAA036E
Copy CRC 0DAA036E
Accurately ripped (confidence 15) [62F928D1]
Copy OK

Track 3

Filename K:\Torrents\The Offspring – Rise And Fall, Rage And Grace [2008]\03 – You’re Gonna Go Far, Kid.wav

Peak level 99.9 %
Track quality 100.0 %
Test CRC 1FB7E46B
Copy CRC 1FB7E46B
Accurately ripped (confidence 14) [CA4E3299]
Copy OK

Track 4

Filename K:\Torrents\The Offspring – Rise And Fall, Rage And Grace [2008]\04 – Hammerhead.wav

Peak level 99.9 %
Track quality 100.0 %
Test CRC 87358BC7
Copy CRC 87358BC7
Accurately ripped (confidence 14) [5C7AF333]
Copy OK

Track 5

Filename K:\Torrents\The Offspring – Rise And Fall, Rage And Grace [2008]\05 – A Lot Like Me.wav

Peak level 99.9 %
Track quality 100.0 %
Test CRC A07E1E40
Copy CRC A07E1E40
Accurately ripped (confidence 15) [4BBB9FB5]
Copy OK

Track 6

Filename K:\Torrents\The Offspring – Rise And Fall, Rage And Grace [2008]\06 – Takes Me Nowhere.wav

Peak level 99.9 %
Track quality 100.0 %
Test CRC 19CCA85E
Copy CRC 19CCA85E
Accurately ripped (confidence 15) [5F710BB0]
Copy OK

Track 7

Filename K:\Torrents\The Offspring – Rise And Fall, Rage And Grace [2008]\07 – Kristy, Are You Doing Okay .wav

Peak level 99.9 %
Track quality 100.0 %
Test CRC 3915319A
Copy CRC 3915319A
Accurately ripped (confidence 15) [C8D07A8F]
Copy OK

Track 8

Filename K:\Torrents\The Offspring – Rise And Fall, Rage And Grace [2008]\08 – Nothingtown.wav

Pre-gap length 0:00:01.10

Peak level 99.9 %
Track quality 100.0 %
Test CRC BB69B590
Copy CRC BB69B590
Accurately ripped (confidence 14) [89FB9445]
Copy OK

Track 9

Filename K:\Torrents\The Offspring – Rise And Fall, Rage And Grace [2008]\09 – Stuff Is Messed Up.wav

Peak level 99.9 %
Track quality 100.0 %
Test CRC 80177D46
Copy CRC 80177D46
Accurately ripped (confidence 14) [BADAF30E]
Copy OK

Track 10

Filename K:\Torrents\The Offspring – Rise And Fall, Rage And Grace [2008]\10 – Fix You.wav

Pre-gap length 0:00:01.33

Peak level 99.9 %
Track quality 100.0 %
Test CRC 59B0A070
Copy CRC 59B0A070
Accurately ripped (confidence 15) [E5C35F78]
Copy OK

Track 11

Filename K:\Torrents\The Offspring – Rise And Fall, Rage And Grace [2008]\11 – Let’s Hear It For Rock Bottom.wav

Peak level 99.9 %
Track quality 100.0 %
Test CRC 885298B6
Copy CRC 885298B6
Accurately ripped (confidence 15) [CECADE13]
Copy OK

Track 12

Filename K:\Torrents\The Offspring – Rise And Fall, Rage And Grace [2008]\12 – Rise And Fall.wav

Peak level 99.9 %
Track quality 100.0 %
Test CRC 7CE81AC2
Copy CRC 7CE81AC2
Accurately ripped (confidence 15) [FE706197]
Copy OK

All tracks accurately ripped

No errors occurred

End of status report

REM GENRE “Punk-Rock”
REM DATE 2008
REM DISCID 8E0A420C
REM COMMENT “ExactAudioCopy v0.99pb4”
PERFORMER “The Offspring”
TITLE “Rise And Fall, Rage And Grace”
FILE “01 Half-Truism.flac” WAVE
TRACK 01 AUDIO
TITLE “Half-Truism”
INDEX 01 00:00:00
FILE “02 Trust In You.flac” WAVE
TRACK 02 AUDIO
TITLE “Trust In You”
INDEX 01 00:00:00
FILE “03 You’re Gonna Go Far, Kid.flac” WAVE
TRACK 03 AUDIO
TITLE “You’re Gonna Go Far, Kid”
INDEX 01 00:00:00
FILE “04 Hammerhead.flac” WAVE
TRACK 04 AUDIO
TITLE “Hammerhead”
INDEX 01 00:00:00
FILE “05 A Lot Like Me.flac” WAVE
TRACK 05 AUDIO
TITLE “A Lot Like Me”
INDEX 01 00:00:00
FILE “06 Takes Me Nowhere.flac” WAVE
TRACK 06 AUDIO
TITLE “Takes Me Nowhere”
INDEX 01 00:00:00
FILE “07 Kristy, Are You Doing Okay.flac” WAVE
TRACK 07 AUDIO
TITLE “Kristy, Are You Doing Okay”
INDEX 01 00:00:00
FILE “08 Nothingtown.flac” WAVE
TRACK 08 AUDIO
TITLE “Nothingtown”
INDEX 01 00:00:00
FILE “09 Stuff Is Messed Up.flac” WAVE
TRACK 09 AUDIO
TITLE “Stuff Is Messed Up”
INDEX 01 00:00:00
FILE “10 Fix You.flac” WAVE
TRACK 10 AUDIO
TITLE “Fix You”
INDEX 01 00:00:00
FILE “11 Let’s Hear It For Rock Bottom.flac” WAVE
TRACK 11 AUDIO
TITLE “Let’s Hear It For Rock Bottom”
INDEX 01 00:00:00
FILE “12 Rise And Fall.flac” WAVE
TRACK 12 AUDIO
TITLE “Rise And Fall”
INDEX 01 00:00:00


Leave a Reply

Your email address will not be published. Required fields are marked *

This site uses Akismet to reduce spam. Learn how your comment data is processed.