The Offspring – Rise And Fall, Rage And Grace (Japanese Edition)




Artist: The Offspring
Year: 2008
Genre: Alternative
Notes: Discogs
Add. Notes: Japanese Edition
Encoder: FLAC
Bitrate: ~1000 kBit/s (44.1 kHz/16 Bit/s)
Bin/Cue incl.: Yes
Size: 392,47 MB
Password: “slam” (without ” “)


http://www.share-online.biz/dl/7POAEVRPM0O7

https://rapidgator.net/file/4123334e641e96f968cf73f2e33696e6

https://uploadbyte.com/6cm7616azjbk

https://uploadever.com/quifrt3k75l9

https://justupload.io/mml0qiab5b9n

Tracklist:

1 - Half-Truism - 3:26
2 - Trust In You - 3:09
3 - You're Gonna Go Far, Kid - 2:58
4 - Hammerhead - 4:38
5 - A Lot Like Me - 4:28
6 - Takes Me Nowhere - 3:00
7 - Kristy, Are You Doing Okay? - 3:43
8 - Nothingtown - 3:29
9 - Stuff Is Messed Up - 3:33
10 - Fix You - 4:19
11 - Let's Hear It For Rock Bottom - 4:05
12 - Rise And Fall - 2:59

EAC-Log, CUE-Sheed & NFO:

Click to open spoiler
Exact Audio Copy V1.0 beta 3 from 29. August 2011

EAC extraction logfile from 13. December 2013, 10:43

The Offspring / Rise And Fall, Rage And Grace (SICP 2049)

Used drive : PLEXTOR DVDR PX-760A Adapter: 1 ID: 0

Read mode : Secure
Utilize accurate stream : Yes
Defeat audio cache : Yes
Make use of C2 pointers : No

Read offset correction : 30
Overread into Lead-In and Lead-Out : No
Fill up missing offset samples with silence : Yes
Delete leading and trailing silent blocks : No
Null samples used in CRC calculations : Yes
Used interface : Native Win32 interface for Win NT & 2000

Used output format : User Defined Encoder
Selected bitrate : 1024 kBit/s
Quality : High
Add ID3 tag : No
Command line compressor : C:\Program Files (x86)\Exact Audio Copy\Flac\flac.exe
Additional command line options : -V -8 -T “Date=%year%” -T “Genre=%genre%” %source%

TOC of the extracted CD

Track | Start | Length | Start sector | End sector
———————————————————
1 | 0:00.00 | 3:25.71 | 0 | 15445
2 | 3:25.71 | 3:09.02 | 15446 | 29622
3 | 6:34.73 | 2:57.62 | 29623 | 42959
4 | 9:32.60 | 4:38.43 | 42960 | 63852
5 | 14:11.28 | 4:27.69 | 63853 | 83946
6 | 18:39.22 | 2:59.48 | 83947 | 97419
7 | 21:38.70 | 3:42.63 | 97420 | 114132
8 | 25:21.58 | 3:29.20 | 114133 | 129827
9 | 28:51.03 | 3:32.48 | 129828 | 145775
10 | 32:23.51 | 4:18.63 | 145776 | 165188
11 | 36:42.39 | 4:04.50 | 165189 | 183538
12 | 40:47.14 | 3:00.09 | 183539 | 197047
13 | 43:47.23 | 3:02.68 | 197048 | 210765
14 | 46:50.16 | 3:51.40 | 210766 | 228130

Range status and errors

Selected range

Filename F:\bki71\The Offspring\The Offspring – Rise And Fall, Rage And Grace (SICP 2049).wav

Peak level 99.9 %
Extraction speed 2.4 X
Range quality 99.9 %
Test CRC 31936A76
Copy CRC 31936A76
Copy OK

No errors occurred

AccurateRip summary

Track 1 accurately ripped (confidence 5) [6FFC3D43] (AR v2)
Track 2 accurately ripped (confidence 5) [48AA3F85] (AR v2)
Track 3 accurately ripped (confidence 5) [9F8D94AE] (AR v2)
Track 4 accurately ripped (confidence 5) [BE2FEB49] (AR v2)
Track 5 accurately ripped (confidence 5) [8B82B152] (AR v2)
Track 6 accurately ripped (confidence 5) [1266368F] (AR v2)
Track 7 accurately ripped (confidence 5) [780C866D] (AR v2)
Track 8 accurately ripped (confidence 5) [8BAB1DBA] (AR v2)
Track 9 accurately ripped (confidence 5) [10F6226E] (AR v2)
Track 10 accurately ripped (confidence 5) [22D77519] (AR v2)
Track 11 accurately ripped (confidence 5) [0DFE732F] (AR v2)
Track 12 accurately ripped (confidence 5) [0FC987EE] (AR v2)
Track 13 accurately ripped (confidence 5) [7B9F7405] (AR v2)
Track 14 accurately ripped (confidence 5) [A6ACE40E] (AR v2)

All tracks accurately ripped

End of status report

==== Log checksum 3826048F9271B9C6596DF32553C22C34ED2E5DEF5DF11852DBFB6E590DFC0981 ====

REM GENRE “Punk Rock”
REM DATE 2008
REM DISCID AD0BE10E
REM COMMENT “ExactAudioCopy v1.0b3”
PERFORMER “The Offspring”
TITLE “Rise And Fall, Rage And Grace (SICP 2049)”
FILE “The Offspring – Rise And Fall, Rage And Grace (SICP 2049).flac” WAVE
TRACK 01 AUDIO
TITLE “Half-Truism”
PERFORMER “The Offspring”
INDEX 01 00:00:00
TRACK 02 AUDIO
TITLE “Trust in You”
PERFORMER “The Offspring”
INDEX 01 03:25:71
TRACK 03 AUDIO
TITLE “You’re Gonna Go Far, Kid”
PERFORMER “The Offspring”
INDEX 01 06:34:73
TRACK 04 AUDIO
TITLE “Hammerhead”
PERFORMER “The Offspring”
INDEX 01 09:32:60
TRACK 05 AUDIO
TITLE “A Lot Like Me”
PERFORMER “The Offspring”
INDEX 01 14:11:28
TRACK 06 AUDIO
TITLE “Takes Me Nowhere”
PERFORMER “The Offspring”
INDEX 01 18:39:22
TRACK 07 AUDIO
TITLE “Kristy, Are You Doing Okay?”
PERFORMER “The Offspring”
INDEX 01 21:38:70
TRACK 08 AUDIO
TITLE “Nothingtown”
PERFORMER “The Offspring”
INDEX 00 25:20:52
INDEX 01 25:21:58
TRACK 09 AUDIO
TITLE “Stuff is Messed Up”
PERFORMER “The Offspring”
INDEX 01 28:51:03
TRACK 10 AUDIO
TITLE “Fix You”
PERFORMER “The Offspring”
INDEX 00 32:22:33
INDEX 01 32:23:51
TRACK 11 AUDIO
TITLE “Let’s Hear It for Rock Bottom”
PERFORMER “The Offspring”
INDEX 01 36:42:39
TRACK 12 AUDIO
TITLE “Rise and Fall”
PERFORMER “The Offspring”
INDEX 01 40:47:14
TRACK 13 AUDIO
TITLE “You’re Gonna Go Far, Kid (Live)”
PERFORMER “The Offspring”
INDEX 00 43:46:14
INDEX 01 43:47:23
TRACK 14 AUDIO
TITLE “Gotta Get Away (Live)”
PERFORMER “The Offspring”
INDEX 00 46:48:13
INDEX 01 46:50:16

Leave a Reply

Your email address will not be published. Required fields are marked *

This site uses Akismet to reduce spam. Learn how your comment data is processed.