The Offspring – Rise And Fall, Rage And Grace (Japanese Edition)




No Cover available

Artist: The Offspring
Year: 2008
Genre: Punk
Notes: Discogs
Add. Notes: Japanese Edition
Watch Songs on: YouTube
Cover incl.: Yes
Encoder: FLAC
Bitrate: ~1000 kBit/s (44.1 kHz/16 Bit/s)
Log & Cue incl.: Yes
Size: 374,7 MB
Password: “slam” (without ” “)


All Downloads/Hosters are compatible

Download 1
KatFile.com
Turbobit.net
FileFactory.com
Rapidgator.net
Download 2
KatFile.com
Turbobit.net
FileFactory.com
Rapidgator.net

Tracklist:

1 - Half-Truism - 3:26
2 - Trust In You - 3:09
3 - You're Gonna Go Far, Kid - 2:58
4 - Hammerhead - 4:38
5 - A Lot Like Me - 4:28
6 - Takes Me Nowhere - 3:00
7 - Kristy, Are You Doing Okay? - 3:43
8 - Nothingtown - 3:29
9 - Stuff Is Messed Up - 3:33
10 - Fix You - 4:19
11 - Let's Hear It For Rock Bottom - 4:05
12 - Rise And Fall - 2:59

EAC-Log, CUE-Sheed & NFO:

Click to open spoiler
Exact Audio Copy V0.99 prebeta 4 from 23. January 2008

EAC extraction logfile from 14. May 2011, 2:05

The Offspring / Rise And Fall, Rage And Grace (SICP-1578~9)

Used drive : PLEXTOR DVDR PX-760A Adapter: 0 ID: 0

Read mode : Secure
Utilize accurate stream : Yes
Defeat audio cache : Yes
Make use of C2 pointers : No

Read offset correction : 30
Overread into Lead-In and Lead-Out : No
Fill up missing offset samples with silence : Yes
Delete leading and trailing silent blocks : No
Null samples used in CRC calculations : Yes
Used interface : Installed external ASPI interface

Used output format : Internal WAV Routines
Sample format : 44.100 Hz; 16 Bit; Stereo

TOC of the extracted CD

Track | Start | Length | Start sector | End sector
———————————————————
1 | 0:00.00 | 3:25.69 | 0 | 15443
2 | 3:25.69 | 3:09.09 | 15444 | 29627
3 | 6:35.03 | 2:57.65 | 29628 | 42967
4 | 9:32.68 | 4:38.33 | 42968 | 63850
5 | 14:11.26 | 4:28.04 | 63851 | 83954
6 | 18:39.30 | 2:59.38 | 83955 | 97417
7 | 21:38.68 | 3:42.65 | 97418 | 114132
8 | 25:21.58 | 3:29.22 | 114133 | 129829
9 | 28:51.05 | 3:32.48 | 129830 | 145777
10 | 32:23.53 | 4:18.63 | 145778 | 165190
11 | 36:42.41 | 4:04.46 | 165191 | 183536
12 | 40:47.12 | 3:01.17 | 183537 | 197128
13 | 43:48.29 | 2:53.56 | 197129 | 210159

Range status and errors

Selected range

Filename D:\bki71\The Offspring – Rise And Fall, Rage And Grace (SICP-1578~9).wav

Peak level 99.9 %
Range quality 100.0 %
Test CRC B290B483
Copy CRC B290B483
Copy OK

No errors occurred

AccurateRip summary

Track 1 accurately ripped (confidence 9) [FF8FA2E7]
Track 2 accurately ripped (confidence 9) [E8BE76B8]
Track 3 accurately ripped (confidence 9) [86A64C0F]
Track 4 accurately ripped (confidence 9) [65EA2F32]
Track 5 accurately ripped (confidence 8) [E91C840C]
Track 6 accurately ripped (confidence 8) [B395A3BE]
Track 7 accurately ripped (confidence 7) [689F2775]
Track 8 accurately ripped (confidence 8) [41CDCBAF]
Track 9 accurately ripped (confidence 7) [CB3C39F8]
Track 10 accurately ripped (confidence 7) [AC0C3D78]
Track 11 accurately ripped (confidence 8) [A8E83D0D]
Track 12 accurately ripped (confidence 7) [A485A4F1]
Track 13 accurately ripped (confidence 9) [67AB2F99]

All tracks accurately ripped

End of status report

REM GENRE “Punk Rock”
REM DATE 2008
REM DISCID 990AF20D
REM COMMENT “ExactAudioCopy v0.99pb4”
PERFORMER “The Offspring”
TITLE “Rise And Fall, Rage And Grace (SICP-1578~9)”
FILE “The Offspring – Rise And Fall, Rage And Grace (SICP-1578~9).flac” WAVE
TRACK 01 AUDIO
TITLE “Half-Truism”
PERFORMER “The Offspring”
INDEX 01 00:00:00
TRACK 02 AUDIO
TITLE “Trust In You”
PERFORMER “The Offspring”
INDEX 01 03:25:69
TRACK 03 AUDIO
TITLE “You’re Gonna Go Far, Kid”
PERFORMER “The Offspring”
INDEX 01 06:35:03
TRACK 04 AUDIO
TITLE “Hammerhead”
PERFORMER “The Offspring”
INDEX 01 09:32:68
TRACK 05 AUDIO
TITLE “A Lot Like Me”
PERFORMER “The Offspring”
INDEX 01 14:11:26
TRACK 06 AUDIO
TITLE “Takes Me Nowhere”
PERFORMER “The Offspring”
INDEX 01 18:39:30
TRACK 07 AUDIO
TITLE “Kristy, Are You Doing Okay?”
PERFORMER “The Offspring”
INDEX 01 21:38:68
TRACK 08 AUDIO
TITLE “Nothingtown”
PERFORMER “The Offspring”
INDEX 00 25:20:52
INDEX 01 25:21:58
TRACK 09 AUDIO
TITLE “Stuff Is Messed Up”
PERFORMER “The Offspring”
INDEX 01 28:51:05
TRACK 10 AUDIO
TITLE “Fix You”
PERFORMER “The Offspring”
INDEX 00 32:22:33
INDEX 01 32:23:53
TRACK 11 AUDIO
TITLE “Lets Hear It For Rock Bottom”
PERFORMER “The Offspring”
INDEX 01 36:42:41
TRACK 12 AUDIO
TITLE “Rise And Fall”
PERFORMER “The Offspring”
INDEX 01 40:47:12
TRACK 13 AUDIO
TITLE “O.C. Life”
PERFORMER “The Offspring”
INDEX 00 43:46:14
INDEX 01 43:48:29


1 thought on “The Offspring – Rise And Fall, Rage And Grace (Japanese Edition)

Leave a Reply

Your email address will not be published. Required fields are marked *

This site uses Akismet to reduce spam. Learn how your comment data is processed.