The Offspring – Ixnay On The Hombre




Artist: The Offspring
Year: 1997
Genre: Punk
Notes: Discogs
Add. Notes:
Cover incl.: Yes
Encoder: FLAC
Bitrate: ~1000 kBit/s (44.1 kHz/16 Bit/s)
Log & Cue incl.: Yes
Size: 307,9 MB
Password: “slam” (without ” “)


All Downloads/Hosters are compatible

Download 1
Turbobit.net
Rapidgator.net
KatFile.com
UploadRar.com
Download 2
Turbobit.net
Rapidgator.net
KatFile.com
UploadRar.com
Download 3
Turbobit.net
Rapidgator.net
KatFile.com
UploadRar.com

Tracklist:

Disclaimer – 0:44
The Meaning of Life – 2:55
Mota – 2:56
Me & My Old Lady – 4:31
Cool to Hate – 2:47
Leave It Behind – 1:56
Gone Away – 4:27
I Choose – 3:54
Intermission – 0:48
All I Want – 1:54
Way Down the Line – 2:35
Don’t Pick It Up – 1:52
Amazed – 4:25
Change the World – 6:23

EAC-Log, CUE-Sheed & NFO:

Click to open spoiler
Exact Audio Copy V0.99 prebeta 4 from 23. January 2008

EAC extraction logfile from 27. March 2008, 3:01

The Offspring / Ixnay on the Hombre

Used drive : SlimtypeDVD A DS8A1H Adapter: 6 ID: 0

Read mode : Secure
Utilize accurate stream : Yes
Defeat audio cache : Yes
Make use of C2 pointers : No

Read offset correction : 594
Overread into Lead-In and Lead-Out : Yes
Fill up missing offset samples with silence : Yes
Delete leading and trailing silent blocks : No
Null samples used in CRC calculations : Yes
Used interface : Native Win32 interface for Win NT & 2000
Gap handling : Appended to previous track

Used output format : Internal WAV Routines
Sample format : 44.100 Hz; 16 Bit; Stereo

TOC of the extracted CD

Track | Start | Length | Start sector | End sector
———————————————————
1 | 0:00.30 | 0:47.57 | 30 | 3611
2 | 0:48.12 | 2:56.54 | 3612 | 16865
3 | 3:44.66 | 2:57.25 | 16866 | 30165
4 | 6:42.16 | 4:33.25 | 30166 | 50665
5 | 11:15.41 | 2:47.70 | 50666 | 63260
6 | 14:03.36 | 1:58.46 | 63261 | 72156
7 | 16:02.07 | 4:28.63 | 72157 | 92319
8 | 20:30.70 | 3:54.51 | 92320 | 109920
9 | 24:25.46 | 0:48.38 | 109921 | 113558
10 | 25:14.09 | 1:54.52 | 113559 | 122160
11 | 27:08.61 | 2:36.53 | 122161 | 133913
12 | 29:45.39 | 1:53.64 | 133914 | 142452
13 | 31:39.28 | 4:25.02 | 142453 | 162329
14 | 36:04.30 | 6:28.48 | 162330 | 191477

Track 1

Filename C:\FTP\Íîâàÿ ïàïêà\01 Disclaimer.wav

Pre-gap length 0:00:02.30

Peak level 97.7 %
Track quality 100.0 %
Test CRC 2EED5DDB
Copy CRC 2EED5DDB
Copy OK

Track 2

Filename C:\FTP\Íîâàÿ ïàïêà\02 The Meaning of Life.wav

Pre-gap length 0:00:00.02

Peak level 97.7 %
Track quality 100.0 %
Test CRC 2CF0DFBC
Copy CRC 2CF0DFBC
Copy OK

Track 3

Filename C:\FTP\Íîâàÿ ïàïêà\03 Mota.wav

Pre-gap length 0:00:00.26

Peak level 97.7 %
Track quality 99.9 %
Test CRC 460C37F6
Copy CRC 460C37F6
Copy OK

Track 4

Filename C:\FTP\Íîâàÿ ïàïêà\04 Me & My Old Lady.wav

Pre-gap length 0:00:00.27

Peak level 97.7 %
Track quality 100.0 %
Test CRC 11E2D4BD
Copy CRC 11E2D4BD
Copy OK

Track 5

Filename C:\FTP\Íîâàÿ ïàïêà\05 Cool to Hate.wav

Pre-gap length 0:00:00.24

Peak level 97.7 %
Track quality 100.0 %
Test CRC CD7DE4E9
Copy CRC CD7DE4E9
Copy OK

Track 6

Filename C:\FTP\Íîâàÿ ïàïêà\06 Leave It Behind.wav

Pre-gap length 0:00:00.30

Peak level 97.7 %
Track quality 100.0 %
Test CRC BBC9D57F
Copy CRC BBC9D57F
Copy OK

Track 7

Filename C:\FTP\Íîâàÿ ïàïêà\07 Gone Away.wav

Pre-gap length 0:00:00.02

Peak level 97.7 %
Track quality 100.0 %
Test CRC AAF4EE46
Copy CRC AAF4EE46
Copy OK

Track 8

Filename C:\FTP\Íîâàÿ ïàïêà\08 I Choose.wav

Pre-gap length 0:00:00.04

Peak level 97.7 %
Track quality 100.0 %
Test CRC 75F3AE90
Copy CRC 75F3AE90
Copy OK

Track 9

Filename C:\FTP\Íîâàÿ ïàïêà\09 Intermission.wav

Pre-gap length 0:00:00.03

Peak level 95.6 %
Track quality 99.7 %
Test CRC D326CAFF
Copy CRC D326CAFF
Copy OK

Track 10

Filename C:\FTP\Íîâàÿ ïàïêà\10 All I Want.wav

Pre-gap length 0:00:00.22

Peak level 97.7 %
Track quality 100.0 %
Test CRC E145E8DA
Copy CRC E145E8DA
Copy OK

Track 11

Filename C:\FTP\Íîâàÿ ïàïêà\11 Way Down the Line.wav

Pre-gap length 0:00:00.01

Peak level 97.7 %
Track quality 100.0 %
Test CRC B07C609D
Copy CRC B07C609D
Copy OK

Track 12

Filename C:\FTP\Íîâàÿ ïàïêà\12 Don’t Pick It Up.wav

Pre-gap length 0:00:00.34

Peak level 97.7 %
Track quality 100.0 %
Test CRC 22DEFCA0
Copy CRC 22DEFCA0
Copy OK

Track 13

Filename C:\FTP\Íîâàÿ ïàïêà\13 Amazed.wav

Pre-gap length 0:00:00.28

Peak level 97.7 %
Track quality 100.0 %
Test CRC B2D15BAC
Copy CRC B2D15BAC
Copy OK

Track 14

Filename C:\FTP\Íîâàÿ ïàïêà\14 Change the World.wav

Pre-gap length 0:00:00.01

Peak level 97.7 %
Track quality 100.0 %
Test CRC 1E0B6986
Copy CRC 1E0B6986
Copy OK

No errors occurred

End of status report


Leave a Reply

Your email address will not be published. Required fields are marked *

This site uses Akismet to reduce spam. Learn how your comment data is processed.