The Offspring – Ixnay On The Hombre (Japanese Edition)




Artist: The Offspring
Year: 1997
Genre: Punk
Notes: Discogs
Add. Notes: Japanese Edition
Cover incl.: Yes
Encoder: FLAC
Bitrate: ~1000 kBit/s (44.1 kHz/16 Bit/s)
Log & Cue incl.: Yes
Size: 342,01 MB
Password: “slam” (without ” “)


All Downloads/Hosters are compatible

Download 1
Turbobit.net
Rapidgator.net
UploadEver.com
JustUpload.io
UsersDrive.com
Download 2
Turbobit.net
Rapidgator.net
UploadEver.com
JustUpload.io
UsersDrive.com
Download 3
Turbobit.net
Rapidgator.net
UploadEver.com
JustUpload.io
UsersDrive.com

Tracklist:

1 - Disclaimer - 0:45
2 - The Meaning Of Life - 2:56
3 - Mota - 2:57
4 - Me & My Old Lady - 4:33
5 - Cool To Hate - 2:47
6 - Leave It Behind - 1:58
7 - Gone Away - 4:28
8 - I Choose - 3:54
9 - Intermission - 0:48
10 - All I Want - 1:54
11 - Way Down The Line - 2:36
12 - Don't Pick It Up - 1:53
13 - Amazed - 4:25
14 - Change The World - 6:21

EAC-Log, CUE-Sheed & NFO:

Click to open spoiler
Exact Audio Copy V1.0 beta 3 from 29. August 2011

EAC extraction logfile from 17. January 2014, 17:45

The Offspring / Ixnay On The Hombre (ESCA 6570)

Used drive : PLEXTOR DVDR PX-760A Adapter: 1 ID: 0

Read mode : Secure
Utilize accurate stream : Yes
Defeat audio cache : Yes
Make use of C2 pointers : No

Read offset correction : 30
Overread into Lead-In and Lead-Out : No
Fill up missing offset samples with silence : Yes
Delete leading and trailing silent blocks : No
Null samples used in CRC calculations : Yes
Used interface : Native Win32 interface for Win NT & 2000

Used output format : User Defined Encoder
Selected bitrate : 1024 kBit/s
Quality : High
Add ID3 tag : No
Command line compressor : C:\Program Files (x86)\Exact Audio Copy\Flac\flac.exe
Additional command line options : -V -8 -T “Date=%year%” -T “Genre=%genre%” %source%

TOC of the extracted CD

Track | Start | Length | Start sector | End sector
———————————————————
1 | 0:00.00 | 0:44.52 | 0 | 3351
2 | 0:44.52 | 2:56.48 | 3352 | 16599
3 | 3:41.25 | 2:57.27 | 16600 | 29901
4 | 6:38.52 | 4:33.15 | 29902 | 50391
5 | 11:11.67 | 2:47.68 | 50392 | 62984
6 | 13:59.60 | 1:58.57 | 62985 | 71891
7 | 15:58.42 | 4:28.63 | 71892 | 92054
8 | 20:27.30 | 3:54.50 | 92055 | 109654
9 | 24:22.05 | 0:48.35 | 109655 | 113289
10 | 25:10.40 | 1:54.50 | 113290 | 121889
11 | 27:05.15 | 2:36.57 | 121890 | 133646
12 | 29:41.72 | 1:53.58 | 133647 | 142179
13 | 31:35.55 | 4:25.00 | 142180 | 162054
14 | 36:00.55 | 6:24.57 | 162055 | 190911

Range status and errors

Selected range

Filename F:\bki71\The Offspring\The Offspring – Ixnay On The Hombre (ESCA 6570).wav

Peak level 97.7 %
Extraction speed 2.5 X
Range quality 100.0 %
Test CRC DC5F4CE6
Copy CRC DC5F4CE6
Copy OK

No errors occurred

AccurateRip summary

Track 1 accurately ripped (confidence 5) [1D7233B4] (AR v2)
Track 2 accurately ripped (confidence 5) [406739B7] (AR v2)
Track 3 accurately ripped (confidence 5) [60BC6159] (AR v2)
Track 4 accurately ripped (confidence 5) [8A354D55] (AR v2)
Track 5 accurately ripped (confidence 5) [352A1476] (AR v2)
Track 6 accurately ripped (confidence 5) [EBF9D074] (AR v2)
Track 7 accurately ripped (confidence 5) [A108B0AD] (AR v2)
Track 8 accurately ripped (confidence 5) [E33C137C] (AR v2)
Track 9 accurately ripped (confidence 5) [E4EDA4C8] (AR v2)
Track 10 accurately ripped (confidence 5) [B6DC2D1F] (AR v2)
Track 11 accurately ripped (confidence 5) [C6D9C637] (AR v2)
Track 12 accurately ripped (confidence 5) [4A82BBB9] (AR v2)
Track 13 accurately ripped (confidence 5) [8D5C04A2] (AR v2)
Track 14 accurately ripped (confidence 5) [B9A536D7] (AR v2)

All tracks accurately ripped

End of status report

==== Log checksum 0074D4BD48D49FC381CE1D2AAA6C8E19AEB6656BD4A7563EE1BB9217590D5042 ====

REM GENRE “Punk Rock”
REM DATE 1997
REM DISCID B009F10E
REM COMMENT “ExactAudioCopy v1.0b3”
PERFORMER “The Offspring”
TITLE “Ixnay On The Hombre (ESCA 6570)”
FILE “The Offspring – Ixnay On The Hombre (ESCA 6570).flac” WAVE
TRACK 01 AUDIO
TITLE “Disclaimer”
PERFORMER “The Offspring”
INDEX 01 00:00:00
TRACK 02 AUDIO
TITLE “The Meaning Of Life”
PERFORMER “The Offspring”
INDEX 01 00:44:52
TRACK 03 AUDIO
TITLE “Mota”
PERFORMER “The Offspring”
INDEX 01 03:41:25
TRACK 04 AUDIO
TITLE “Me & My Old Lady”
PERFORMER “The Offspring”
INDEX 01 06:38:52
TRACK 05 AUDIO
TITLE “Cool To Hate”
PERFORMER “The Offspring”
INDEX 01 11:11:67
TRACK 06 AUDIO
TITLE “Leave It Behind”
PERFORMER “The Offspring”
INDEX 01 13:59:60
TRACK 07 AUDIO
TITLE “Gone Away”
PERFORMER “The Offspring”
INDEX 01 15:58:42
TRACK 08 AUDIO
TITLE “I Choose”
PERFORMER “The Offspring”
INDEX 01 20:27:30
TRACK 09 AUDIO
TITLE “Intermission”
PERFORMER “The Offspring”
INDEX 01 24:22:05
TRACK 10 AUDIO
TITLE “All I Want”
PERFORMER “The Offspring”
INDEX 01 25:10:40
TRACK 11 AUDIO
TITLE “Way Down The Line”
PERFORMER “The Offspring”
INDEX 01 27:05:15
TRACK 12 AUDIO
TITLE “Don’t Pick It Up”
PERFORMER “The Offspring”
INDEX 01 29:41:72
TRACK 13 AUDIO
TITLE “Amazed”
PERFORMER “The Offspring”
INDEX 01 31:35:55
TRACK 14 AUDIO
TITLE “Change The World”
PERFORMER “The Offspring”
INDEX 01 36:00:55

Leave a Reply

Your email address will not be published. Required fields are marked *

Enter the text from the image below
 

This site uses Akismet to reduce spam. Learn how your comment data is processed.