The Offspring – Ignition




No Cover available

Artist: The Offspring
Year: 1992
Genre: Punk
Notes: Discogs
Add. Notes:
Watch Songs on: YouTube
Cover incl.: Yes
Encoder: FLAC
Bitrate: ~1000 kBit/s (44.1 kHz/16 Bit/s)
Log & Cue incl.: Yes/Yes
Size: 278,9 MB
Password: “slam” (without ” “)


All Downloads/Hosters are compatible

Download 1
KatFile.com
Turbobit.net
FileFactory.com
Rapidgator.net
Download 2
KatFile.com
Turbobit.net
FileFactory.com
Rapidgator.net

Tracklist:

1. Session
2. We Are One
3. Kick Him When He's Down
4. Take It Like A Man
5. Get It Right
6. Dirty Magic
7. Hypodermic
8. Burn It Up
9. No Hero
10. L.A.P.D.
11. Nothing From Something
12. Forever And A Day

EAC-Log, CUE-Sheed & NFO:

Click to open spoiler
EAC extraction logfile from 7. April 2006, 5:07 for CD
The Offspring / Ignition

Used drive : PIONEER DVD RW DVR-106D Adapter: 1 ID: 0
Read mode : Secure with NO C2, accurate stream, disable cache
Read offset correction : 48
Overread into Lead-In and Lead-Out : Yes

Used output format : C:\Program Files\Exact Audio Copy\flac.exe (User Defined Encoder)
192 kBit/s
Additional command line options : -V -8 -T “artist=%a” -T “title=%t” -T “album=%g” -T “date=%y” -T “tracknumber=%n” -T “genre=%m” %s

Other options :
Fill up missing offset samples with silence : Yes
Delete leading and trailing silent blocks : No
Installed external ASPI interface

Track 1
Filename E:\The Offspring – 1992 – Ignition\01 – The Offspring – Session.wav

Pre-gap length 0:00:02.00

Peak level 89.6 %
Track quality 100.0 %
Test CRC C8DB6488
Copy CRC C8DB6488
Copy OK

Track 2
Filename E:\The Offspring – 1992 – Ignition\02 – The Offspring – We Are One.wav

Pre-gap length 0:00:00.17

Peak level 96.3 %
Track quality 100.0 %
Test CRC 4005C113
Copy CRC 4005C113
Copy OK

Track 3
Filename E:\The Offspring – 1992 – Ignition\03 – The Offspring – Kick Him When He’s Down.wav

Pre-gap length 0:00:00.05

Peak level 94.6 %
Track quality 100.0 %
Test CRC 078E1F20
Copy CRC 078E1F20
Copy OK

Track 4
Filename E:\The Offspring – 1992 – Ignition\04 – The Offspring – Take It Like a Man.wav

Pre-gap length 0:00:00.50

Peak level 94.6 %
Track quality 99.9 %
Test CRC A26A6064
Copy CRC A26A6064
Copy OK

Track 5
Filename E:\The Offspring – 1992 – Ignition\05 – The Offspring – Get It Right.wav

Pre-gap length 0:00:00.05

Peak level 94.6 %
Track quality 100.0 %
Test CRC 3A05729A
Copy CRC 3A05729A
Copy OK

Track 6
Filename E:\The Offspring – 1992 – Ignition\06 – The Offspring – Dirty Magic.wav

Pre-gap length 0:00:00.30

Peak level 94.9 %
Track quality 100.0 %
Test CRC A15CAC24
Copy CRC A15CAC24
Copy OK

Track 7
Filename E:\The Offspring – 1992 – Ignition\07 – The Offspring – Hypodermic.wav

Pre-gap length 0:00:00.50

Peak level 94.6 %
Track quality 100.0 %
Test CRC 2C872CB1
Copy CRC 2C872CB1
Copy OK

Track 8
Filename E:\The Offspring – 1992 – Ignition\08 – The Offspring – Burn It Up.wav

Peak level 95.5 %
Track quality 99.9 %
Test CRC 1A47B7F2
Copy CRC 1A47B7F2
Copy OK

Track 9
Filename E:\The Offspring – 1992 – Ignition\09 – The Offspring – No Hero.wav

Pre-gap length 0:00:00.72

Peak level 94.6 %
Track quality 100.0 %
Test CRC 1C32DDA8
Copy CRC 1C32DDA8
Copy OK

Track 10
Filename E:\The Offspring – 1992 – Ignition\10 – The Offspring – L.A.P.D..wav

Peak level 94.6 %
Track quality 100.0 %
Test CRC 6AE584F3
Copy CRC 6AE584F3
Copy OK

Track 11
Filename E:\The Offspring – 1992 – Ignition\11 – The Offspring – Nothing from Something.wav

Pre-gap length 0:00:00.70

Peak level 95.3 %
Track quality 100.0 %
Test CRC 2462EFB2
Copy CRC 2462EFB2
Copy OK

Track 12
Filename E:\The Offspring – 1992 – Ignition\12 – The Offspring – Forever and a Day.wav

Pre-gap length 0:00:00.27

Peak level 95.9 %
Track quality 100.0 %
Test CRC 02034D6B
Copy CRC 02034D6B
Copy OK

No errors occured

End of status report


Leave a Reply

Your email address will not be published. Required fields are marked *

This site uses Akismet to reduce spam. Learn how your comment data is processed.