The Offspring – Ignition (Japanese Edition)




Artist: The Offspring
Year: 1992/1995
Genre: Punk
Notes: Discogs
Add. Notes: Japanese Edition
Encoder: FLAC
Bitrate: ~1000 kBit/s (44.1 kHz/16 Bit/s)
Bin/Cue incl.: Yes
Size: 328,99 MB
Password: “slam” (without ” “)


http://www.share-online.biz/dl/0S3HKRRPWBJ
https://rapidgator.net/file/495a3d23a5e47b8bc1d38df3ff0576fc
https://uploadbyte.com/4vldfdkj3c0w
https://uploadever.com/u2nqd21i4o1y

Tracklist:

1 - Session - 2:32
2 - We Are One - 3:59
3 - Kick Him When He's Down - 3:16
4 - Take It Like A Man - 2:55
5 - Get It Right - 3:06
6 - Dirty Magic - 3:48
7 - Hypodermic - 3:21
8 - Burn It Up - 2:42
9 - No Hero - 3:22
10 - L.A.P.D. - 2:45
11 - Nothing From Something - 3:00
12 - Forever And A Day - 2:38

EAC-Log, CUE-Sheed & NFO:

Click to open spoiler
Exact Audio Copy V0.99 prebeta 4 from 23. January 2008

EAC extraction logfile from 10. November 2010, 22:59

The Offspring / Ignition (ESCA 6144)

Used drive : PLEXTOR DVDR PX-760A Adapter: 0 ID: 0

Read mode : Secure
Utilize accurate stream : Yes
Defeat audio cache : Yes
Make use of C2 pointers : No

Read offset correction : 30
Overread into Lead-In and Lead-Out : No
Fill up missing offset samples with silence : Yes
Delete leading and trailing silent blocks : No
Null samples used in CRC calculations : Yes
Used interface : Installed external ASPI interface

Used output format : Internal WAV Routines
Sample format : 44.100 Hz; 16 Bit; Stereo

TOC of the extracted CD

Track | Start | Length | Start sector | End sector
———————————————————
1 | 0:00.00 | 2:32.52 | 0 | 11451
2 | 2:32.52 | 3:59.65 | 11452 | 29441
3 | 6:32.42 | 3:16.30 | 29442 | 44171
4 | 9:48.72 | 2:55.23 | 44172 | 57319
5 | 12:44.20 | 3:06.10 | 57320 | 71279
6 | 15:50.30 | 3:48.65 | 71280 | 88444
7 | 19:39.20 | 3:21.65 | 88445 | 103584
8 | 23:01.10 | 2:42.55 | 103585 | 115789
9 | 25:43.65 | 3:22.12 | 115790 | 130951
10 | 29:06.02 | 2:45.40 | 130952 | 143366
11 | 31:51.42 | 3:00.28 | 143367 | 156894
12 | 34:51.70 | 2:38.50 | 156895 | 168794

Range status and errors

Selected range

Filename D:\bki71\The Offspring – Ignition (ESCA 6144).wav

Peak level 96.3 %
Range quality 100.0 %
Test CRC 4F8F71CA
Copy CRC 4F8F71CA
Copy OK

No errors occurred

AccurateRip summary

Track 1 not present in database
Track 2 not present in database
Track 3 not present in database
Track 4 not present in database
Track 5 not present in database
Track 6 not present in database
Track 7 not present in database
Track 8 not present in database
Track 9 not present in database
Track 10 not present in database
Track 11 not present in database
Track 12 not present in database

None of the tracks are present in the AccurateRip database

End of status report

REM GENRE “Punk Rock”
REM DATE 1992
REM DISCID A608CA0C
REM COMMENT “ExactAudioCopy v0.99pb4”
PERFORMER “The Offspring”
TITLE “Ignition (ESCA 6144)”
FILE “The Offspring – Ignition (ESCA 6144).flac” WAVE
TRACK 01 AUDIO
TITLE “Session”
PERFORMER “The Offspring”
INDEX 01 00:00:00
TRACK 02 AUDIO
TITLE “We Are One”
PERFORMER “The Offspring”
INDEX 01 02:32:52
TRACK 03 AUDIO
TITLE “Kick Him When He’s Down”
PERFORMER “The Offspring”
INDEX 01 06:32:42
TRACK 04 AUDIO
TITLE “Take It Like A Man”
PERFORMER “The Offspring”
INDEX 01 09:48:72
TRACK 05 AUDIO
TITLE “Get It Right”
PERFORMER “The Offspring”
INDEX 01 12:44:20
TRACK 06 AUDIO
TITLE “Dirty Magic”
PERFORMER “The Offspring”
INDEX 01 15:50:30
TRACK 07 AUDIO
TITLE “Hypodermic”
PERFORMER “The Offspring”
INDEX 01 19:39:20
TRACK 08 AUDIO
TITLE “Burn It Up”
PERFORMER “The Offspring”
INDEX 01 23:01:10
TRACK 09 AUDIO
TITLE “No Hero”
PERFORMER “The Offspring”
INDEX 01 25:43:65
TRACK 10 AUDIO
TITLE “L.A.P.D.”
PERFORMER “The Offspring”
INDEX 01 29:06:02
TRACK 11 AUDIO
TITLE “Nothing From Something”
PERFORMER “The Offspring”
INDEX 01 31:51:42
TRACK 12 AUDIO
TITLE “Forever And A Day”
PERFORMER “The Offspring”
INDEX 01 34:51:70

Leave a Reply

Your email address will not be published. Required fields are marked *

Enter the text from the image below
 

This site uses Akismet to reduce spam. Learn how your comment data is processed.