The Offspring – Happy Hour




No Cover available

Artist: The Offspring
Year: 2010
Genre: Punk
Notes: Discogs
Add. Notes:
Watch Songs on: YouTube
Cover incl.: No
Encoder: FLAC
Bitrate: ~1000 kBit/s (44.1 kHz/16 Bit/s)
Log & Cue incl.: No, but seperate Tracks
Size: 424,7 MB
Password: “slam” (without ” “)


All Downloads/Hosters are compatible

Download 1
KatFile.com
Turbobit.net
FileFactory.com
Rapidgator.net
Download 2
KatFile.com
Turbobit.net
FileFactory.com
Rapidgator.net

Tracklist:

1 Come Out And Play (Keep 'Em Separated) (Live) 3:11
2 Pretty Fly (For A White Guy) (Live) 3:05
3 All I Want (Live) 2:07
4 Gone Away (Live) 4:17
5 Staring At The Sun (Live) 2:27
6 Hit That (Live) 2:47
7 Gotta Get Away (Live) 3:37
8 Dammit I Changed Again (Live At Wembley) 2:55
9 D.U.I 2:30
10 Beheaded (1999) 2:41
11 Sin City 4:27
12 I Got A Right 2:22
13 Hey Joe 2:39
14 80 Times 2:07
15 Autonomy 2:36
16 Want You Bad (Blag Dahlia Remix)
3:10
17 Why Don't You Get A Job? (Baka Boyz Remix)
4:21
18 Million Miles Away (Apollo 440 Remix)
4:01
19 Pretty Fly For A White Guy (The Baka Boyz Low Rider 
Remix) 3:03

EAC-Log, CUE-Sheed & NFO:

Click to open spoiler
Exact Audio Copy V1.1 from 23. June 2015

EAC extraction logfile from 22. January 2016, 18:08

The Offspring / Happy Hour!

Used drive : HL-DT-STDVDRW GX40N Adapter: 1 ID: 0

Read mode : Secure
Utilize accurate stream : Yes
Defeat audio cache : Yes
Make use of C2 pointers : No

Read offset correction : 6
Overread into Lead-In and Lead-Out : No
Fill up missing offset samples with silence : Yes
Delete leading and trailing silent blocks : No
Null samples used in CRC calculations : Yes
Used interface : Native Win32 interface for Win NT & 2000
Gap handling : Appended to previous track

Used output format : User Defined Encoder
Selected bitrate : 1024 kBit/s
Quality : High
Add ID3 tag : No
Command line compressor : C:\Program Files (x86)\Exact Audio Copy\Flac\flac.exe
Additional command line options : -8 -V -T “ARTIST=%artist%” -T “TITLE=%title%” -T “ALBUM=%albumtitle%” -T “DATE=%year%” -T “TRACKNUMBER=%tracknr%” -T “GENRE=%genre%” -T “PERFORMER=%albuminterpret%” -T “COMPOSER=%composer%” %haslyrics%–tag-from-file=LYRICS=”%lyricsfile%”%haslyrics% -T “ALBUMARTIST=%albumartist%” -T “DISCNUMBER=%cdnumber%” -T “TOTALDISCS=%totalcds%” -T “TOTALTRACKS=%numtracks%” -T “COMMENT=%comment%” %source% -o %dest%

TOC of the extracted CD

Track | Start | Length | Start sector | End sector
———————————————————
1 | 0:00.00 | 3:10.68 | 0 | 14317
2 | 3:10.68 | 3:04.62 | 14318 | 28179
3 | 6:15.55 | 2:07.18 | 28180 | 37722
4 | 8:22.73 | 4:17.35 | 37723 | 57032
5 | 12:40.33 | 2:26.40 | 57033 | 68022
6 | 15:06.73 | 2:46.58 | 68023 | 80530
7 | 17:53.56 | 3:36.62 | 80531 | 96792
8 | 21:30.43 | 2:54.51 | 96793 | 109893
9 | 24:25.19 | 2:29.44 | 109894 | 121112
10 | 26:54.63 | 2:41.05 | 121113 | 133192
11 | 29:35.68 | 4:26.45 | 133193 | 153187
12 | 34:02.38 | 2:22.05 | 153188 | 163842
13 | 36:24.43 | 2:39.27 | 163843 | 175794
14 | 39:03.70 | 2:07.05 | 175795 | 185324
15 | 41:11.00 | 2:36.30 | 185325 | 197054
16 | 43:47.30 | 3:09.59 | 197055 | 211288
17 | 46:57.14 | 4:21.10 | 211289 | 230873
18 | 51:18.24 | 4:01.25 | 230874 | 248973
19 | 55:19.49 | 3:02.72 | 248974 | 262695

Track 1

Filename C:\EAC\The Offspring – Happy Hour! (2010) [FLAC] {SICP 2727}\01 – Come Out And Play (Keep ‘Em Separated) [Live].wav

Pre-gap length 0:00:02.00

Peak level 94.4 %
Extraction speed 1.4 X
Track quality 99.9 %
Test CRC 59042EEF
Copy CRC 59042EEF
Accurately ripped (confidence 8) [647AAFC1] (AR v2)
Copy OK

Track 2

Filename C:\EAC\The Offspring – Happy Hour! (2010) [FLAC] {SICP 2727}\02 – Pretty Fly (For A White Guy) [Live].wav

Peak level 90.5 %
Extraction speed 2.6 X
Track quality 100.0 %
Test CRC 0506A48D
Copy CRC 0506A48D
Accurately ripped (confidence 8) [6E2E7A25] (AR v2)
Copy OK

Track 3

Filename C:\EAC\The Offspring – Happy Hour! (2010) [FLAC] {SICP 2727}\03 – All I Want [Live].wav

Peak level 98.8 %
Extraction speed 2.7 X
Track quality 100.0 %
Test CRC DB9B5FDA
Copy CRC DB9B5FDA
Accurately ripped (confidence 8) [3FB83B8D] (AR v2)
Copy OK

Track 4

Filename C:\EAC\The Offspring – Happy Hour! (2010) [FLAC] {SICP 2727}\04 – Gone Away [Live].wav

Peak level 99.5 %
Extraction speed 3.3 X
Track quality 100.0 %
Test CRC C040FD76
Copy CRC C040FD76
Accurately ripped (confidence 8) [2AC9878C] (AR v2)
Copy OK

Track 5

Filename C:\EAC\The Offspring – Happy Hour! (2010) [FLAC] {SICP 2727}\05 – Staring At The Sun [Live].wav

Peak level 97.3 %
Extraction speed 3.1 X
Track quality 100.0 %
Test CRC EA24771C
Copy CRC EA24771C
Accurately ripped (confidence 8) [C8F52FF8] (AR v2)
Copy OK

Track 6

Filename C:\EAC\The Offspring – Happy Hour! (2010) [FLAC] {SICP 2727}\06 – Hit That [Live].wav

Peak level 99.4 %
Extraction speed 3.4 X
Track quality 100.0 %
Test CRC 41009E2B
Copy CRC 41009E2B
Accurately ripped (confidence 8) [BAC157F4] (AR v2)
Copy OK

Track 7

Filename C:\EAC\The Offspring – Happy Hour! (2010) [FLAC] {SICP 2727}\07 – Gotta Get Away [Live].wav

Peak level 99.4 %
Extraction speed 3.7 X
Track quality 100.0 %
Test CRC 0F5379CF
Copy CRC 0F5379CF
Accurately ripped (confidence 8) [0A221BE4] (AR v2)
Copy OK

Track 8

Filename C:\EAC\The Offspring – Happy Hour! (2010) [FLAC] {SICP 2727}\08 – Dammit, I Changed Again [Live At Wembley].wav

Peak level 99.9 %
Extraction speed 1.6 X
Track quality 100.0 %
Test CRC C130E095
Copy CRC C130E095
Accurately ripped (confidence 8) [278713AC] (AR v2)
Copy OK

Track 9

Filename C:\EAC\The Offspring – Happy Hour! (2010) [FLAC] {SICP 2727}\09 – D.U.I..wav

Pre-gap length 0:00:02.68

Peak level 99.6 %
Extraction speed 1.6 X
Track quality 100.0 %
Test CRC 3D0C6BC9
Copy CRC 3D0C6BC9
Accurately ripped (confidence 8) [94F61513] (AR v2)
Copy OK

Track 10

Filename C:\EAC\The Offspring – Happy Hour! (2010) [FLAC] {SICP 2727}\10 – Beheaded (1999).wav

Pre-gap length 0:00:01.10

Peak level 100.0 %
Extraction speed 1.7 X
Track quality 100.0 %
Test CRC C0AAE525
Copy CRC C0AAE525
Accurately ripped (confidence 8) [0EF81443] (AR v2)
Copy OK

Track 11

Filename C:\EAC\The Offspring – Happy Hour! (2010) [FLAC] {SICP 2727}\11 – Sin City.wav

Pre-gap length 0:00:01.93

Peak level 95.8 %
Extraction speed 1.7 X
Track quality 99.9 %
Test CRC 7D3BF2E7
Copy CRC 7D3BF2E7
Accurately ripped (confidence 8) [024308A0] (AR v2)
Copy OK

Track 12

Filename C:\EAC\The Offspring – Happy Hour! (2010) [FLAC] {SICP 2727}\12 – I Got A Right.wav

Pre-gap length 0:00:02.05

Peak level 100.0 %
Extraction speed 1.4 X
Track quality 99.9 %
Test CRC 913CB578
Copy CRC 913CB578
Accurately ripped (confidence 8) [736F97E9] (AR v2)
Copy OK

Track 13

Filename C:\EAC\The Offspring – Happy Hour! (2010) [FLAC] {SICP 2727}\13 – Hey Joe.wav

Pre-gap length 0:00:01.76

Peak level 99.6 %
Extraction speed 1.5 X
Track quality 99.9 %
Test CRC 689B9064
Copy CRC 689B9064
Accurately ripped (confidence 8) [643A53DF] (AR v2)
Copy OK

Track 14

Filename C:\EAC\The Offspring – Happy Hour! (2010) [FLAC] {SICP 2727}\14 – 80 Times.wav

Pre-gap length 0:00:02.22

Peak level 100.0 %
Extraction speed 1.8 X
Track quality 100.0 %
Test CRC 14543F49
Copy CRC 14543F49
Accurately ripped (confidence 8) [5FAAA0D5] (AR v2)
Copy OK

Track 15

Filename C:\EAC\The Offspring – Happy Hour! (2010) [FLAC] {SICP 2727}\15 – Autonomy.wav

Peak level 100.0 %
Extraction speed 1.9 X
Track quality 100.0 %
Test CRC A66DB465
Copy CRC A66DB465
Accurately ripped (confidence 8) [E4D606B1] (AR v2)
Copy OK

Track 16

Filename C:\EAC\The Offspring – Happy Hour! (2010) [FLAC] {SICP 2727}\16 – Want You Bad (Blag Dahlia Remix).wav

Pre-gap length 0:00:01.74

Peak level 99.6 %
Extraction speed 2.0 X
Track quality 100.0 %
Test CRC 127B1C3B
Copy CRC 127B1C3B
Accurately ripped (confidence 8) [00259F54] (AR v2)
Copy OK

Track 17

Filename C:\EAC\The Offspring – Happy Hour! (2010) [FLAC] {SICP 2727}\17 – Why Don’t You Get A Job (Baka Boyz Remix).wav

Pre-gap length 0:00:02.12

Peak level 99.6 %
Extraction speed 2.2 X
Track quality 100.0 %
Test CRC 1C657EA2
Copy CRC 1C657EA2
Accurately ripped (confidence 8) [64ACCE87] (AR v2)
Copy OK

Track 18

Filename C:\EAC\The Offspring – Happy Hour! (2010) [FLAC] {SICP 2727}\18 – Million Miles Away (Apollo 440 Remix).wav

Pre-gap length 0:00:02.30

Peak level 89.0 %
Extraction speed 2.0 X
Track quality 99.9 %
Test CRC 105B4F99
Copy CRC 105B4F99
Accurately ripped (confidence 8) [19197365] (AR v2)
Copy OK

Track 19

Filename C:\EAC\The Offspring – Happy Hour! (2010) [FLAC] {SICP 2727}\19 – Pretty Fly (For A White Guy) (The Baka Boyz Low Rider Remix).wav

Pre-gap length 0:00:01.30

Peak level 99.6 %
Extraction speed 1.9 X
Track quality 99.9 %
Test CRC CFB48F6F
Copy CRC CFB48F6F
Accurately ripped (confidence 8) [557F602F] (AR v2)
Copy OK

All tracks accurately ripped

No errors occurred

End of status report

—- CUETools DB Plugin V2.1.6

[CTDB TOCID: u8PZPh8eqjkAKd6qsy_N.4YeVZg-] found
Submit result: u8PZPh8eqjkAKd6qsy_N.4YeVZg- has been confirmed
Track | CTDB Status
1 | (8/8) Accurately ripped
2 | (8/8) Accurately ripped
3 | (8/8) Accurately ripped
4 | (8/8) Accurately ripped
5 | (8/8) Accurately ripped
6 | (8/8) Accurately ripped
7 | (8/8) Accurately ripped
8 | (8/8) Accurately ripped
9 | (8/8) Accurately ripped
10 | (8/8) Accurately ripped
11 | (8/8) Accurately ripped
12 | (8/8) Accurately ripped
13 | (8/8) Accurately ripped
14 | (8/8) Accurately ripped
15 | (8/8) Accurately ripped
16 | (8/8) Accurately ripped
17 | (8/8) Accurately ripped
18 | (8/8) Accurately ripped
19 | (8/8) Accurately ripped

==== Log checksum BE8259A0E20F3FD63BE76237E47A1A27201FA4A1E4FC53D636E5403D2896DA5B ====

REM GENRE “Punk-Rock”
REM DATE 2010
REM DISCID 0E0DAE13
REM COMMENT “ExactAudioCopy v1.1”
PERFORMER “The Offspring”
TITLE “Happy Hour!”
FILE “01 Come Out And Play (Keep ‘Em Separated) (Live).flac” WAVE
TRACK 01 AUDIO
TITLE “Come Out And Play (Keep ‘Em Separated) (Live)”
INDEX 01 00:00:00
FILE “02 Pretty Fly (For A White Guy) (Live).flac” WAVE
TRACK 02 AUDIO
TITLE “Pretty Fly (For A White Guy) (Live)”
INDEX 01 00:00:00
FILE “03 All I Want (Live).flac” WAVE
TRACK 03 AUDIO
TITLE “All I Want (Live)”
INDEX 01 00:00:00
FILE “04 Gone Away (Live).flac” WAVE
TRACK 04 AUDIO
TITLE “Gone Away (Live)”
INDEX 01 00:00:00
FILE “05 Staring At The Sun (Live).flac” WAVE
TRACK 05 AUDIO
TITLE “Staring At The Sun (Live)”
INDEX 01 00:00:00
FILE “06 Hit That (Live).flac” WAVE
TRACK 06 AUDIO
TITLE “Hit That (Live)”
INDEX 01 00:00:00
FILE “07 Gotta Get Away (Live).flac” WAVE
TRACK 07 AUDIO
TITLE “Gotta Get Away (Live)”
INDEX 01 00:00:00
FILE “08 Dammit, I Changed Again (Live At Wembley).flac” WAVE
TRACK 08 AUDIO
TITLE “Dammit, I Changed Again (Live At Wembley)”
INDEX 01 00:00:00
FILE “09 D.U.I..flac” WAVE
TRACK 09 AUDIO
TITLE “D.U.I.”
INDEX 01 00:00:00
FILE “10 Beheaded (1999).flac” WAVE
TRACK 10 AUDIO
TITLE “Beheaded (1999)”
INDEX 01 00:00:00
FILE “11 Sin City.flac” WAVE
TRACK 11 AUDIO
TITLE “Sin City”
INDEX 01 00:00:00
FILE “12 I Got A Right.flac” WAVE
TRACK 12 AUDIO
TITLE “I Got A Right”
INDEX 01 00:00:00
FILE “13 Hey Joe.flac” WAVE
TRACK 13 AUDIO
TITLE “Hey Joe”
INDEX 01 00:00:00
FILE “14 80 Times.flac” WAVE
TRACK 14 AUDIO
TITLE “80 Times”
INDEX 01 00:00:00
FILE “15 Autonomy.flac” WAVE
TRACK 15 AUDIO
TITLE “Autonomy”
INDEX 01 00:00:00
FILE “16 Want You Bad (Blag Dahlia Remix).flac” WAVE
TRACK 16 AUDIO
TITLE “Want You Bad (Blag Dahlia Remix)”
INDEX 01 00:00:00
FILE “17 Why Don’t You Get A Job (Baka Boyz Remix).flac” WAVE
TRACK 17 AUDIO
TITLE “Why Don’t You Get A Job (Baka Boyz Remix)”
INDEX 01 00:00:00
FILE “18 Million Miles Away (Apollo 440 Remix).flac” WAVE
TRACK 18 AUDIO
TITLE “Million Miles Away (Apollo 440 Remix)”
INDEX 01 00:00:00
FILE “19 Pretty Fly (For A White Guy) (The Baka Boyz Low Rider Remix).flac” WAVE
TRACK 19 AUDIO
TITLE “Pretty Fly (For A White Guy) (The Baka Boyz Low Rider Remix)”
INDEX 01 00:00:00


Leave a Reply

Your email address will not be published. Required fields are marked *

This site uses Akismet to reduce spam. Learn how your comment data is processed.