The Offspring – Days Go By (Japanese Edition)




No Cover available

Artist: The Offspring
Year: 2012
Genre: Punk
Notes: Discogs
Add. Notes: Japanese Edition
Watch Songs on: YouTube
Cover incl.: Yes
Encoder: FLAC
Bitrate: ~1000 kBit/s (44.1 kHz/16 Bit/s)
Log & Cue incl.: Yes
Size: 429 MB
Password: “slam” (without ” “)


All Downloads/Hosters are compatible

Download 1
KatFile.com
Turbobit.net
FileFactory.com
Rapidgator.net
Download 2
KatFile.com
Turbobit.net
FileFactory.com
Rapidgator.net

Tracklist:

1 - The Future Is Now - 4:08
2 - Secrets From The Underground - 3:10
3 - Days Go By - 4:02
4 - Turning Into You - 3:42
5 - Hurting As One - 2:50
6 - Cruising California (Bumpin' In My Trunk) - 3:31
7 - All I Have Left Is You - 5:19
8 - OC Guns - 4:08
9 - Dirty Magic - 4:00
10 - I Wanna Secret Family (With You) - 3:02
11 - Dividing By Zero - 2:22
12.1 - Slim Pickens Does The Right Thing And Rides The 
Bomb To Hell - 2:35
12.2 - (silence) - 2:01
12.3 - Self Esteem (Live) - 4:24
12.4 - You're Gonna Go Far, Kid (Live) - 2:58
12.5 - The Kids Aren't Alright (Live) - 3:03

EAC-Log, CUE-Sheed & NFO:

Click to open spoiler
Exact Audio Copy V1.0 beta 3 from 29. August 2011

EAC extraction logfile from 12. December 2013, 12:18

The Offspring / Days Go By (SICP 3500)

Used drive : PLEXTOR DVDR PX-760A Adapter: 1 ID: 0

Read mode : Secure
Utilize accurate stream : Yes
Defeat audio cache : Yes
Make use of C2 pointers : No

Read offset correction : 30
Overread into Lead-In and Lead-Out : No
Fill up missing offset samples with silence : Yes
Delete leading and trailing silent blocks : No
Null samples used in CRC calculations : Yes
Used interface : Native Win32 interface for Win NT & 2000

Used output format : User Defined Encoder
Selected bitrate : 1024 kBit/s
Quality : High
Add ID3 tag : No
Command line compressor : C:\Program Files (x86)\Exact Audio Copy\Flac\flac.exe
Additional command line options : -V -8 -T “Date=%year%” -T “Genre=%genre%” %source%

TOC of the extracted CD

Track | Start | Length | Start sector | End sector
———————————————————
1 | 0:00.00 | 4:08.31 | 0 | 18630
2 | 4:08.31 | 3:09.61 | 18631 | 32866
3 | 7:18.17 | 4:01.59 | 32867 | 51000
4 | 11:20.01 | 3:41.45 | 51001 | 67620
5 | 15:01.46 | 2:49.67 | 67621 | 80362
6 | 17:51.38 | 3:30.67 | 80363 | 96179
7 | 21:22.30 | 5:18.40 | 96180 | 120069
8 | 26:40.70 | 4:07.66 | 120070 | 138660
9 | 30:48.61 | 4:00.16 | 138661 | 156676
10 | 34:49.02 | 3:01.64 | 156677 | 170315
11 | 37:50.66 | 2:22.31 | 170316 | 180996
12 | 40:13.22 | 15:01.34 | 180997 | 248605

Range status and errors

Selected range

Filename F:\bki71\The Offspring\The Offspring – Days Go By (SICP 3500).wav

Peak level 100.0 %
Extraction speed 2.5 X
Range quality 100.0 %
Test CRC E384BC27
Copy CRC E384BC27
Copy OK

No errors occurred

AccurateRip summary

Track 1 accurately ripped (confidence 2) [A2737B1A] (AR v2)
Track 2 accurately ripped (confidence 2) [E6BD45C8] (AR v2)
Track 3 accurately ripped (confidence 2) [230DB2F5] (AR v2)
Track 4 accurately ripped (confidence 2) [75F554AD] (AR v2)
Track 5 accurately ripped (confidence 2) [80BA78DC] (AR v2)
Track 6 accurately ripped (confidence 2) [16F83705] (AR v2)
Track 7 accurately ripped (confidence 2) [5D3EF1D4] (AR v2)
Track 8 accurately ripped (confidence 2) [91CF983C] (AR v2)
Track 9 accurately ripped (confidence 2) [825DCD33] (AR v2)
Track 10 accurately ripped (confidence 2) [36E2ABA7] (AR v2)
Track 11 accurately ripped (confidence 2) [C6880A9E] (AR v2)
Track 12 accurately ripped (confidence 3) [C49159D2] (AR v2)

All tracks accurately ripped

End of status report

==== Log checksum 70492B2305E89B87A2A9199D4CB31BA41F60F8610F7EA87825794EDA88BA1651 ====

REM GENRE “Punk Rock”
REM DATE 2012
REM DISCID 830CF20C
REM COMMENT “ExactAudioCopy v1.0b3”
PERFORMER “The Offspring”
TITLE “Days Go By (SICP 3500)”
FILE “The Offspring – Days Go By (SICP 3500).flac” WAVE
TRACK 01 AUDIO
TITLE “The Future Is Now”
PERFORMER “The Offspring”
INDEX 01 00:00:00
TRACK 02 AUDIO
TITLE “Secret From The Underground”
PERFORMER “The Offspring”
INDEX 01 04:08:31
TRACK 03 AUDIO
TITLE “Days Go By”
PERFORMER “The Offspring”
INDEX 01 07:18:17
TRACK 04 AUDIO
TITLE “Turning Into You”
PERFORMER “The Offspring”
INDEX 01 11:20:01
TRACK 05 AUDIO
TITLE “Hurting As One”
PERFORMER “The Offspring”
INDEX 01 15:01:46
TRACK 06 AUDIO
TITLE “Cruising California (Bumpin’ In My Trunk)”
PERFORMER “The Offspring”
INDEX 01 17:51:38
TRACK 07 AUDIO
TITLE “All I Have Left Is You”
PERFORMER “The Offspring”
INDEX 01 21:22:30
TRACK 08 AUDIO
TITLE “OC Guns”
PERFORMER “The Offspring”
INDEX 01 26:40:70
TRACK 09 AUDIO
TITLE “Dirty Magic”
PERFORMER “The Offspring”
INDEX 01 30:48:61
TRACK 10 AUDIO
TITLE “I Wanna Secret Family (With You)”
PERFORMER “The Offspring”
INDEX 01 34:49:02
TRACK 11 AUDIO
TITLE “Dividing By Zero”
PERFORMER “The Offspring”
INDEX 01 37:50:66
TRACK 12 AUDIO
TITLE “Slim Pickens Does The Right Thing And Rides The Bomb To Hell”
PERFORMER “The Offspring”
INDEX 01 40:13:22


1 thought on “The Offspring – Days Go By (Japanese Edition)

Leave a Reply

Your email address will not be published. Required fields are marked *

This site uses Akismet to reduce spam. Learn how your comment data is processed.