The Offspring – Conspiracy Of One (Japanese Edition)




Artist: The Offspring
Year: 2000/2010
Genre: Punk
Notes: Discogs
Add. Notes: Japanese Edition
Encoder: FLAC
Bitrate: ~1100 kBit/s (44.1 kHz/16 Bit/s)
Bin/Cue incl.: Yes
Size: 618,76 MB
Password: “slam” (without ” “)


http://www.share-online.biz/dl/C6ZMYSRPGCX
http://www.share-online.biz/dl/RICNYSRP6GWX
https://rapidgator.net/file/6c3128c83321d5bf4f8c317e22ba4df3
https://rapidgator.net/file/f7a2ae50fe7af513f4e73dcca1e0da15
https://uploadbyte.com/48g7o7sp3m4w
https://uploadbyte.com/ebnaihmet5lc
https://justupload.io/qr1i776pi090
https://justupload.io/uvc84gdhfghp
https://uploadever.com/18eiw5hoi8fo
https://uploadever.com/chg2qjuudthq

Tracklist:

1 - Intro  
2 - Come Out Swinging  
3 - Original Prankster  
4 - Want You Bad  
5 - Million Miles Away  
6 - Dammit, I Changed Again  
7 - Living In Chaos  
8 - Special Delivery  
9 - One Fine Day  
10 - All Along  
11 - Denial, Revisited  
12 - Vultures  
13 - Conspiracy Of One  
14 - Huck It  
15 - The Kids Aren't Alright (Live)

EAC-Log, CUE-Sheed & NFO:

Click to open spoiler
Exact Audio Copy V0.99 prebeta 4 from 23. January 2008

EAC extraction logfile from 7. August 2010, 12:58

The Offspring / Conspiracy Of One (ESCA 8247)

Used drive : PLEXTOR DVDR PX-760A Adapter: 0 ID: 0

Read mode : Secure
Utilize accurate stream : Yes
Defeat audio cache : Yes
Make use of C2 pointers : No

Read offset correction : 30
Overread into Lead-In and Lead-Out : No
Fill up missing offset samples with silence : Yes
Delete leading and trailing silent blocks : No
Null samples used in CRC calculations : Yes
Used interface : Installed external ASPI interface

Used output format : Internal WAV Routines
Sample format : 44.100 Hz; 16 Bit; Stereo

TOC of the extracted CD

Track | Start | Length | Start sector | End sector
———————————————————
1 | 0:00.00 | 0:04.47 | 0 | 346
2 | 0:04.47 | 2:47.18 | 347 | 12889
3 | 2:51.65 | 3:40.72 | 12890 | 29461
4 | 6:32.62 | 3:22.45 | 29462 | 44656
5 | 9:55.32 | 3:39.60 | 44657 | 61141
6 | 13:35.17 | 2:48.68 | 61142 | 73809
7 | 16:24.10 | 3:28.25 | 73810 | 89434
8 | 19:52.35 | 3:00.35 | 89435 | 102969
9 | 22:52.70 | 2:45.12 | 102970 | 115356
10 | 25:38.07 | 1:38.47 | 115357 | 122753
11 | 27:16.54 | 4:32.58 | 122754 | 143211
12 | 31:49.37 | 3:34.15 | 143212 | 159276
13 | 35:23.52 | 2:18.15 | 159277 | 169641
14 | 37:41.67 | 2:40.00 | 169642 | 181641
15 | 40:21.67 | 3:03.65 | 181642 | 195431
16 | 45:57.57 | 28:16.12 | 206832 | 334043

Range status and errors

Selected range

Filename D:\bki71\The Offspring – Conspiracy Of One (ESCA 8247).wav

Peak level 100.0 %
Range quality 100.0 %
Test CRC EA411B18
Copy CRC EA411B18
Copy OK

No errors occurred

AccurateRip summary

Track 1 not present in database
Track 2 accurately ripped (confidence 2) [65957935]
Track 3 not present in database
Track 4 accurately ripped (confidence 2) [3575210A]
Track 5 not present in database
Track 6 accurately ripped (confidence 2) [023055C0]
Track 7 accurately ripped (confidence 2) [C4F9C805]
Track 8 not present in database
Track 9 accurately ripped (confidence 2) [C47EDF91]
Track 10 accurately ripped (confidence 2) [DC1DC35F]
Track 11 not present in database
Track 12 not present in database
Track 13 accurately ripped (confidence 2) [B6AEA255]
Track 14 accurately ripped (confidence 2) [C41C74C3]
Track 15 not present in database

8 track(s) accurately ripped
7 track(s) not present in the AccurateRip database

Some tracks could not be verified as accurate

End of status report

REM GENRE “Punk Rock”
REM DATE 2000
REM DISCID DE116510
REM COMMENT “ExactAudioCopy v0.99pb4”
PERFORMER “The Offspring”
TITLE “Conspiracy Of One (ESCA 8247)”
FILE “The Offspring – Conspiracy Of One (ESCA 8247).flac” WAVE
TRACK 01 AUDIO
TITLE “Intro”
PERFORMER “The Offspring”
INDEX 01 00:00:00
TRACK 02 AUDIO
TITLE “Come Out Swinging”
PERFORMER “The Offspring”
INDEX 01 00:04:47
TRACK 03 AUDIO
TITLE “Original Prankster”
PERFORMER “The Offspring”
INDEX 01 02:51:65
TRACK 04 AUDIO
TITLE “Want You Bad”
PERFORMER “The Offspring”
INDEX 01 06:32:62
TRACK 05 AUDIO
TITLE “Million Miles Away”
PERFORMER “The Offspring”
INDEX 01 09:55:32
TRACK 06 AUDIO
TITLE “Dammit, I Changed Again”
PERFORMER “The Offspring”
INDEX 01 13:35:17
TRACK 07 AUDIO
TITLE “Living In Chaos”
PERFORMER “The Offspring”
INDEX 01 16:24:10
TRACK 08 AUDIO
TITLE “Special Delivery”
PERFORMER “The Offspring”
INDEX 01 19:52:35
TRACK 09 AUDIO
TITLE “One Fine Day”
PERFORMER “The Offspring”
INDEX 01 22:52:70
TRACK 10 AUDIO
TITLE “All Along”
PERFORMER “The Offspring”
INDEX 01 25:38:07
TRACK 11 AUDIO
TITLE “Denial, Revisited”
PERFORMER “The Offspring”
INDEX 01 27:16:54
TRACK 12 AUDIO
TITLE “Vultures”
PERFORMER “The Offspring”
INDEX 01 31:49:37
TRACK 13 AUDIO
TITLE “Conspiracy Of One”
PERFORMER “The Offspring”
INDEX 01 35:23:52
TRACK 14 AUDIO
TITLE “Huck It”
PERFORMER “The Offspring”
INDEX 01 37:41:67
TRACK 15 AUDIO
TITLE “The Kids Aren’t Alright (Live)”
PERFORMER “The Offspring”
INDEX 01 40:21:67

Leave a Reply

Your email address will not be published. Required fields are marked *

This site uses Akismet to reduce spam. Learn how your comment data is processed.