The Offspring – (Can’t Get My) Head Around You (Japanese Edition)




Artist: The Offspring
Year: 2004
Genre: Punk
Notes: Discogs
Add. Notes: Japanese Edition
Cover incl.: Yes
Encoder: FLAC
Bitrate: ~1000 kBit/s (44.1 kHz/16 Bit/s)
Log & Cue incl.: Yes
Size: 133,93 MB
Password: “slam” (without ” “)


All Downloads/Hosters are compatible

Download 1
Turbobit.net
Rapidgator.net
UploadByte.com
UploadEver.com
JustUpload.io
Download 2
Turbobit.net
Rapidgator.net
UploadByte.com
UploadEver.com
JustUpload.io
Download 3
Turbobit.net
Rapidgator.net
UploadByte.com
UploadEver.com
JustUpload.io

Tracklist:

1 - (Can't Get My) Head Around You - 2:16
2 - Hit That (Live) - 2:49
3 - Come Out And Play (Live) - 3:11
4 - Gotta Get Away (Live) - 3:44
5 - The Kids Aren't Alright (BBC Radio 1 Session) - 4:15

EAC-Log, CUE-Sheed & NFO:

Click to open spoiler
Exact Audio Copy V1.0 beta 3 from 29. August 2011

EAC extraction logfile from 12. December 2013, 13:40

The Offspring / (Can’t Get My) Head Around You (SICP 604)

Used drive : PLEXTOR DVDR PX-760A Adapter: 1 ID: 0

Read mode : Secure
Utilize accurate stream : Yes
Defeat audio cache : Yes
Make use of C2 pointers : No

Read offset correction : 30
Overread into Lead-In and Lead-Out : No
Fill up missing offset samples with silence : Yes
Delete leading and trailing silent blocks : No
Null samples used in CRC calculations : Yes
Used interface : Native Win32 interface for Win NT & 2000

Used output format : User Defined Encoder
Selected bitrate : 1024 kBit/s
Quality : High
Add ID3 tag : No
Command line compressor : C:\Program Files (x86)\Exact Audio Copy\Flac\flac.exe
Additional command line options : -V -8 -T “Date=%year%” -T “Genre=%genre%” %source%

TOC of the extracted CD

Track | Start | Length | Start sector | End sector
———————————————————
1 | 0:00.00 | 2:16.35 | 0 | 10234
2 | 2:16.35 | 2:48.42 | 10235 | 22876
3 | 5:05.02 | 3:10.63 | 22877 | 37189
4 | 8:15.65 | 3:43.58 | 37190 | 53972
5 | 11:59.48 | 4:15.01 | 53973 | 73098
6 | 18:46.49 | 8:08.45 | 84499 | 121143

Range status and errors

Selected range

Filename F:\bki71\The Offspring\The Offspring – (Can’t Get My) Head Around You (SICP 604).wav

Peak level 99.4 %
Extraction speed 2.4 X
Range quality 100.0 %
Test CRC F87130DE
Copy CRC F87130DE
Copy OK

No errors occurred

AccurateRip summary

Track 1 accurately ripped (confidence 1) [8D3A4EBE] (AR v2)
Track 2 accurately ripped (confidence 1) [29957D4E] (AR v2)
Track 3 accurately ripped (confidence 1) [25C08E72] (AR v2)
Track 4 accurately ripped (confidence 1) [A19540D9] (AR v2)
Track 5 accurately ripped (confidence 1) [00266B5C] (AR v2)

All tracks accurately ripped

End of status report

==== Log checksum 6E49E1C969699C660624F06F7086D00F9CBDA06400A581B2CBE7FFB4A43973B8 ====

REM GENRE “Punk Rock”
REM DATE 2004
REM DISCID 42064F06
REM COMMENT “ExactAudioCopy v1.0b3”
PERFORMER “The Offspring”
TITLE “(Can’t Get My) Head Around You (SICP 604)”
FILE “The Offspring – (Can’t Get My) Head Around You (SICP 604).flac” WAVE
TRACK 01 AUDIO
TITLE “(Can’t Get My) Head Around You”
PERFORMER “The Offspring”
INDEX 01 00:00:00
TRACK 02 AUDIO
TITLE “Hit That (Live)”
PERFORMER “The Offspring”
INDEX 00 02:15:11
INDEX 01 02:16:35
TRACK 03 AUDIO
TITLE “Come Out And Play (Live)”
PERFORMER “The Offspring”
INDEX 01 05:05:02
TRACK 04 AUDIO
TITLE “Gotta Get Away (Live)”
PERFORMER “The Offspring”
INDEX 01 08:15:65
TRACK 05 AUDIO
TITLE “The Kids Aren’t Alright (BBC Radio 1 Session)”
PERFORMER “The Offspring”
INDEX 01 11:59:48

Leave a Reply

Your email address will not be published. Required fields are marked *

Enter the text from the image below
 

This site uses Akismet to reduce spam. Learn how your comment data is processed.