The Offspring – Americana




No Cover available

Artist: The Offspring
Year: 1998
Genre: Punk
Notes: Discogs
Add. Notes:
Watch Songs on: YouTube
Cover incl.: Yes
Encoder: FLAC
Bitrate: ~1000 kBit/s (44.1 kHz/16 Bit/s)
Log & Cue incl.: Yes/Yes
Size: 305,2 MB
Password: “slam” (without ” “)


All Downloads/Hosters are compatible

Download 1
KatFile.com
Turbobit.net
FileFactory.com
Rapidgator.net
Download 2
KatFile.com
Turbobit.net
FileFactory.com
Rapidgator.net

Tracklist:

1. Welcome
2. Have You Ever
3. Staring At The Sun
4. Pretty Fly (For A White Guy)
5. The Kids Aren't Alright
6. Feelings
7. She's Got Issues
8. Walla Walla
9. The End Of The Line
10. No Brakes
11. Why Don't You Get A Job
12. Americana
13. Pay The Man
14. Pretty Fly (For A White Guy) (Reprise) (Hidden Track)

EAC-Log, CUE-Sheed & NFO:

Click to open spoiler
Exact Audio Copy V0.99 prebeta 4 from 23. January 2008

EAC extraction logfile from 1. April 2008, 1:31

The Offspring / Americana

Used drive : SlimtypeDVD A DS8A1H Adapter: 6 ID: 0

Read mode : Secure
Utilize accurate stream : Yes
Defeat audio cache : Yes
Make use of C2 pointers : No

Read offset correction : 594
Overread into Lead-In and Lead-Out : Yes
Fill up missing offset samples with silence : Yes
Delete leading and trailing silent blocks : No
Null samples used in CRC calculations : Yes
Used interface : Native Win32 interface for Win NT & 2000
Gap handling : Appended to previous track

Used output format : User Defined Encoder
Selected bitrate : 1024 kBit/s
Quality : High
Add ID3 tag : Yes
Command line compressor : C:\Program Files\foobar2000\components\flac.exe
Additional command line options : -V -5 -T “artist=%a” -T “title=%t” -T “album=%g” -T “date=%y” -T “tracknumber=%n” -T “genre=%m” %s

TOC of the extracted CD

Track | Start | Length | Start sector | End sector
———————————————————
1 | 0:00.00 | 0:09.60 | 0 | 734
2 | 0:09.60 | 3:56.57 | 735 | 18491
3 | 4:06.42 | 2:13.45 | 18492 | 28511
4 | 6:20.12 | 3:08.50 | 28512 | 42661
5 | 9:28.62 | 3:00.15 | 42662 | 56176
6 | 12:29.02 | 2:51.73 | 56177 | 69074
7 | 15:21.00 | 3:48.42 | 69075 | 86216
8 | 19:09.42 | 2:57.10 | 86217 | 99501
9 | 22:06.52 | 3:00.23 | 99502 | 113024
10 | 25:07.00 | 2:06.15 | 113025 | 122489
11 | 27:13.15 | 2:52.32 | 122490 | 135421
12 | 30:05.47 | 3:15.15 | 135422 | 150061
13 | 33:20.62 | 10:19.03 | 150062 | 196489

Track 1

Filename C:\FTP\01 Welcome.wav

Pre-gap length 0:00:02.00

Peak level 94.4 %
Track quality 100.0 %
Test CRC DC24CF16
Copy CRC DC24CF16
Accurately ripped (confidence 70) [3B7A3E10]
Copy OK

Track 2

Filename C:\FTP\02 Have You Ever.wav

Peak level 94.4 %
Track quality 99.9 %
Test CRC B1AED8A5
Copy CRC B1AED8A5
Accurately ripped (confidence 75) [640D01A7]
Copy OK

Track 3

Filename C:\FTP\03 Staring At The Sun.wav

Pre-gap length 0:00:00.09

Peak level 94.4 %
Track quality 100.0 %
Test CRC C414125C
Copy CRC C414125C
Accurately ripped (confidence 75) [B02CDFFE]
Copy OK

Track 4

Filename C:\FTP\04 Pretty Fly (For A White Guy).wav

Pre-gap length 0:00:00.16

Peak level 96.5 %
Track quality 100.0 %
Test CRC 79A67035
Copy CRC 79A67035
Accurately ripped (confidence 76) [14D8D229]
Copy OK

Track 5

Filename C:\FTP\05 The Kids Aren’t Alright.wav

Peak level 92.2 %
Track quality 100.0 %
Test CRC E71A8C06
Copy CRC E71A8C06
Accurately ripped (confidence 75) [50FAF6F4]
Copy OK

Track 6

Filename C:\FTP\06 Feelings.wav

Pre-gap length 0:00:00.15

Peak level 94.4 %
Track quality 100.0 %
Test CRC 04A85B6D
Copy CRC 04A85B6D
Accurately ripped (confidence 71) [CF8ED96E]
Copy OK

Track 7

Filename C:\FTP\07 She’s Got Issues.wav

Pre-gap length 0:00:00.20

Peak level 94.4 %
Track quality 100.0 %
Test CRC FA8F4903
Copy CRC FA8F4903
Accurately ripped (confidence 74) [E70CBD5D]
Copy OK

Track 8

Filename C:\FTP\08 Walla Walla.wav

Peak level 94.4 %
Track quality 100.0 %
Test CRC 6B795A31
Copy CRC 6B795A31
Accurately ripped (confidence 75) [508FD8CE]
Copy OK

Track 9

Filename C:\FTP\09 The End Of The Line.wav

Pre-gap length 0:00:00.11

Peak level 94.4 %
Track quality 99.9 %
Test CRC 8A47DFE1
Copy CRC 8A47DFE1
Accurately ripped (confidence 77) [92A709B5]
Copy OK

Track 10

Filename C:\FTP\10 No Brakes.wav

Pre-gap length 0:00:00.15

Peak level 94.4 %
Track quality 99.9 %
Test CRC F44BC31E
Copy CRC F44BC31E
Accurately ripped (confidence 74) [48041E8B]
Copy OK

Track 11

Filename C:\FTP\11 Why Don’t You Get A Job .wav

Peak level 94.4 %
Track quality 100.0 %
Test CRC 0838B32C
Copy CRC 0838B32C
Accurately ripped (confidence 75) [778FD6A4]
Copy OK

Track 12

Filename C:\FTP\12 Americana.wav

Pre-gap length 0:00:00.20

Peak level 94.4 %
Track quality 100.0 %
Test CRC 31F601B7
Copy CRC 31F601B7
Accurately ripped (confidence 76) [710DF833]
Copy OK

Track 13

Filename C:\FTP\13 Pay The Man.wav

Pre-gap length 0:00:00.21

Peak level 100.0 %
Track quality 100.0 %
Test CRC E76AB1ED
Copy CRC E76AB1ED
Accurately ripped (confidence 65) [833B5012]
Copy OK

All tracks accurately ripped

No errors occurred

End of status report

REM GENRE “Punk-Rock”
REM DATE 1998
REM DISCID 8E0A3B0D
REM COMMENT “ExactAudioCopy v0.99pb4”
PERFORMER “The Offspring”
TITLE “Americana”
FILE “01 Welcome.flac” WAVE
TRACK 01 AUDIO
TITLE “Welcome”
INDEX 01 00:00:00
FILE “02 Have You Ever.flac” WAVE
TRACK 02 AUDIO
TITLE “Have You Ever”
INDEX 01 00:00:00
FILE “03 Staring At The Sun.flac” WAVE
TRACK 03 AUDIO
TITLE “Staring At The Sun”
PREGAP 00:00:09
INDEX 01 00:00:00
FILE “04 Pretty Fly (For A White Guy).flac” WAVE
TRACK 04 AUDIO
TITLE “Pretty Fly (For A White Guy)”
PREGAP 00:00:16
INDEX 01 00:00:00
FILE “05 The Kids Aren’t Alright.flac” WAVE
TRACK 05 AUDIO
TITLE “The Kids Aren’t Alright”
INDEX 01 00:00:00
FILE “06 Feelings.flac” WAVE
TRACK 06 AUDIO
TITLE “Feelings”
PREGAP 00:00:15
INDEX 01 00:00:00
FILE “07 She’s Got Issues.flac” WAVE
TRACK 07 AUDIO
TITLE “She’s Got Issues”
PREGAP 00:00:20
INDEX 01 00:00:00
FILE “08 Walla Walla.flac” WAVE
TRACK 08 AUDIO
TITLE “Walla Walla”
INDEX 01 00:00:00
FILE “09 The End Of The Line.flac” WAVE
TRACK 09 AUDIO
TITLE “The End Of The Line”
PREGAP 00:00:11
INDEX 01 00:00:00
FILE “10 No Brakes.flac” WAVE
TRACK 10 AUDIO
TITLE “No Brakes”
PREGAP 00:00:15
INDEX 01 00:00:00
FILE “11 Why Don’t You Get A Job.flac” WAVE
TRACK 11 AUDIO
TITLE “Why Don’t You Get A Job”
INDEX 01 00:00:00
FILE “12 Americana.flac” WAVE
TRACK 12 AUDIO
TITLE “Americana”
PREGAP 00:00:20
INDEX 01 00:00:00
FILE “13 Pay The Man.flac” WAVE
TRACK 13 AUDIO
TITLE “Pay The Man”
PREGAP 00:00:21
INDEX 01 00:00:00


Leave a Reply

Your email address will not be published. Required fields are marked *

This site uses Akismet to reduce spam. Learn how your comment data is processed.