The Offspring – Americana (Japanese Edition)




Artist: The Offspring
Year: 1998
Genre: Alternative
Notes: Discogs
Add. Notes: Japanese Edition
Cover incl.: Yes
Encoder: FLAC
Bitrate: ~1000 kBit/s (44.1 kHz/16 Bit/s)
Log & Cue incl.: Yes
Size: 542,07 MB
Password: “slam” (without ” “)


All Downloads/Hosters are compatible

Download 1
Turbobit.net
Rapidgator.net
UploadByte.com
UploadEver.com
JustUpload.io
Download 2
Turbobit.net
Rapidgator.net
UploadByte.com
UploadEver.com
JustUpload.io
Download 3
Turbobit.net
Rapidgator.net
UploadByte.com
UploadEver.com
JustUpload.io

Tracklist:

1 - Welcome - 0:09
2 - Have You Ever - 3:56
3 - Staring At The Sun - 2:13
4 - Pretty Fly (For A White Guy) - 3:08
5 - The Kids Aren't Alright - 3:00
6 - Feelings - 2:51
7 - She's Got Issues - 3:48
8 - Walla Walla - 2:57
9 - The End Of The Line - 3:00
10 - No Brakes - 2:06
11 - Why Don't You Get A Job? - 2:52
12 - Americana - 3:15
13.1 - Pay The Man - 8:10
13.2 - Pretty Fly (Reprise) - 1:03

EAC-Log, CUE-Sheed & NFO:

Click to open spoiler
Exact Audio Copy V0.99 prebeta 4 from 23. January 2008

EAC extraction logfile from 7. August 2010, 12:36

The Offspring / Americana (ESCA 7393)

Used drive : PLEXTOR DVDR PX-760A Adapter: 0 ID: 0

Read mode : Secure
Utilize accurate stream : Yes
Defeat audio cache : Yes
Make use of C2 pointers : No

Read offset correction : 30
Overread into Lead-In and Lead-Out : No
Fill up missing offset samples with silence : Yes
Delete leading and trailing silent blocks : No
Null samples used in CRC calculations : Yes
Used interface : Installed external ASPI interface

Used output format : Internal WAV Routines
Sample format : 44.100 Hz; 16 Bit; Stereo

TOC of the extracted CD

Track | Start | Length | Start sector | End sector
———————————————————
1 | 0:00.00 | 0:09.52 | 0 | 726
2 | 0:09.52 | 3:56.55 | 727 | 18481
3 | 4:06.32 | 2:13.55 | 18482 | 28511
4 | 6:20.12 | 3:08.50 | 28512 | 42661
5 | 9:28.62 | 3:00.13 | 42662 | 56174
6 | 12:29.00 | 2:52.00 | 56175 | 69074
7 | 15:21.00 | 3:48.40 | 69075 | 86214
8 | 19:09.40 | 2:57.12 | 86215 | 99501
9 | 22:06.52 | 3:02.30 | 99502 | 113181
10 | 25:09.07 | 2:04.05 | 113182 | 122486
11 | 27:13.12 | 2:52.35 | 122487 | 135421
12 | 30:05.47 | 3:15.13 | 135422 | 150059
13 | 33:20.60 | 10:19.27 | 150060 | 196511
14 | 46:12.12 | 20:48.58 | 207912 | 301569

Range status and errors

Selected range

Filename D:\bki71\The Offspring – Americana (ESCA 7393).wav

Peak level 100.0 %
Range quality 100.0 %
Test CRC 58DF2F6F
Copy CRC 58DF2F6F
Copy OK

No errors occurred

AccurateRip summary

Track 1 accurately ripped (confidence 5) [DE2F9BC7]
Track 2 accurately ripped (confidence 5) [5B426143]
Track 3 accurately ripped (confidence 5) [6E08E272]
Track 4 accurately ripped (confidence 5) [4E525533]
Track 5 accurately ripped (confidence 5) [4CE48497]
Track 6 accurately ripped (confidence 5) [B0EDF681]
Track 7 accurately ripped (confidence 5) [35E784EB]
Track 8 accurately ripped (confidence 5) [E1401E48]
Track 9 accurately ripped (confidence 5) [8A0CE1F9]
Track 10 accurately ripped (confidence 5) [EA198CD4]
Track 11 accurately ripped (confidence 5) [F5B71C46]
Track 12 accurately ripped (confidence 5) [CA6CE6ED]
Track 13 accurately ripped (confidence 5) [76DF9F34]

All tracks accurately ripped

End of status report

REM GENRE “Punk Rock”
REM DATE 1998
REM DISCID 9B0FB40E
REM COMMENT “ExactAudioCopy v0.99pb4”
PERFORMER “The Offspring”
TITLE “Americana (ESCA 7393)”
FILE “The Offspring – Americana (ESCA 7393).flac” WAVE
TRACK 01 AUDIO
TITLE “Welcome”
PERFORMER “The Offspring”
INDEX 01 00:00:00
TRACK 02 AUDIO
TITLE “Have You Ever”
PERFORMER “The Offspring”
INDEX 01 00:09:52
TRACK 03 AUDIO
TITLE “Staring At The Sun”
PERFORMER “The Offspring”
INDEX 01 04:06:32
TRACK 04 AUDIO
TITLE “Pretty Fly (For A White Guy)”
PERFORMER “The Offspring”
INDEX 01 06:20:12
TRACK 05 AUDIO
TITLE “The Kids Aren’t Alright”
PERFORMER “The Offspring”
INDEX 01 09:28:62
TRACK 06 AUDIO
TITLE “Feelings”
PERFORMER “The Offspring”
INDEX 01 12:29:00
TRACK 07 AUDIO
TITLE “She’s Got Issues”
PERFORMER “The Offspring”
INDEX 01 15:21:00
TRACK 08 AUDIO
TITLE “Walla Walla”
PERFORMER “The Offspring”
INDEX 01 19:09:40
TRACK 09 AUDIO
TITLE “The End Of The Line”
PERFORMER “The Offspring”
INDEX 00 22:05:42
INDEX 01 22:06:52
TRACK 10 AUDIO
TITLE “No Brakes”
PERFORMER “The Offspring”
INDEX 01 25:09:07
TRACK 11 AUDIO
TITLE “Why Don’t You Get A Job?”
PERFORMER “The Offspring”
INDEX 00 27:11:45
INDEX 01 27:13:12
TRACK 12 AUDIO
TITLE “Americana”
PERFORMER “The Offspring”
INDEX 01 30:05:47
TRACK 13 AUDIO
TITLE “Pay The Man”
PERFORMER “The Offspring”
INDEX 00 33:19:60
INDEX 01 33:20:60

Leave a Reply

Your email address will not be published. Required fields are marked *

This site uses Akismet to reduce spam. Learn how your comment data is processed.