The National – I Am Easy To Find




[Total: 0    Average: 0/5]

Artist: The National
Year: 2019
Genre: Rock
Notes: Discogs
Add. Notes:
Cover incl.: Yes
Encoder: FLAC
Bitrate: ~900 kBit/s (44.1 kHz/16 Bit/s)
Log & Cue incl.: Yes
Size: 374,7 MB
Password: “slam” (without ” “)


All Downloads/Hosters are compatible

Download 1
KatFile.com
Turbobit.net
FileFactory.com
Rapidgator.net
Download 2
KatFile.com
Turbobit.net
FileFactory.com
Rapidgator.net

Tracklist:

1 - You Had Your Soul With You - 3:26
2 - Quiet Light - 4:15
3 - Roman Holiday - 3:35
4 - Oblivions - 4:14
5 - The Pull Of You - 3:59
6 - Hey Rosey - 4:14
7 - I Am Easy To Find - 4:31
8 - Her Father In The Pool - 1:03
9 - Where Is Her Head - 4:42
10 - Not In Kansas - 6:45
11 - So Far So Fast - 6:37
12 - Dust Swirls In Strange Light - 3:19
13 - Hairpin Turns - 4:28
14 - Rylan - 3:44
15 - Underwater - 1:21
16 - Light Years - 3:33

EAC-Log, CUE-Sheed & NFO:

Click to open spoiler
X Lossless Decoder version 20181019 (151.1)

XLD extraction logfile from 2019-05-13 17:45:53 -0400

The National / I Am Easy To Find

Used drive : HL-DT-ST DVDRAM GP65NW60 (revision PF00)
Media type : Pressed CD

Ripper mode : XLD Secure Ripper
Disable audio cache : OK for the drive with a cache less than 1375KiB
Make use of C2 pointers : NO
Read offset correction : 6
Max retry count : 100
Gap status : Analyzed, Appended (except HTOA)

TOC of the extracted CD
Track | Start | Length | Start sector | End sector
———————————————————
1 | 00:00:00 | 03:26:21 | 0 | 15470
2 | 03:26:21 | 04:15:21 | 15471 | 34616
3 | 07:41:42 | 03:34:59 | 34617 | 50725
4 | 11:16:26 | 04:13:74 | 50726 | 69774
5 | 15:30:25 | 03:58:48 | 69775 | 87672
6 | 19:28:73 | 04:14:08 | 87673 | 106730
7 | 23:43:06 | 04:30:44 | 106731 | 127024
8 | 28:13:50 | 01:02:39 | 127025 | 131713
9 | 29:16:14 | 04:41:46 | 131714 | 152834
10 | 33:57:60 | 06:44:54 | 152835 | 183188
11 | 40:42:39 | 06:36:67 | 183189 | 212955
12 | 47:19:31 | 03:18:60 | 212956 | 227865
13 | 50:38:16 | 04:27:39 | 227866 | 247929
14 | 55:05:55 | 03:43:64 | 247930 | 264718
15 | 58:49:44 | 01:21:36 | 264719 | 270829
16 | 60:11:05 | 03:33:28 | 270830 | 286832

AccurateRip Summary
Disc not found in AccurateRip DB.

All Tracks
Album gain : -10.22 dB
Peak : 0.994904
Statistics
Read error : 0
Jitter error (maybe fixed) : 0
Retry sector count : 0
Damaged sector count : 0

Track 01
Filename : /Users/Shared/The National – I Am Easy To Find (2019) [FLAC]/01 You Had Your Soul With You.flac
Pre-gap length : 00:02:00

Track gain : -11.07 dB
Peak : 0.992676
CRC32 hash (test run) : 0824FFD1
CRC32 hash : 0824FFD1
CRC32 hash (skip zero) : ECA83418
AccurateRip v1 signature : 5948534C
AccurateRip v2 signature : 21CE1253
->Track not present in AccurateRip database.
Statistics
Read error : 0
Jitter error (maybe fixed) : 0
Retry sector count : 0
Damaged sector count : 0

Track 02
Filename : /Users/Shared/The National – I Am Easy To Find (2019) [FLAC]/02 Quiet Light.flac

Track gain : -11.83 dB
Peak : 0.993164
CRC32 hash (test run) : 50368A2D
CRC32 hash : 50368A2D
CRC32 hash (skip zero) : F54A7CD8
AccurateRip v1 signature : 1C17C0DD
AccurateRip v2 signature : B615811C
->Track not present in AccurateRip database.
Statistics
Read error : 0
Jitter error (maybe fixed) : 0
Retry sector count : 0
Damaged sector count : 0

Track 03
Filename : /Users/Shared/The National – I Am Easy To Find (2019) [FLAC]/03 Roman Holiday.flac

Track gain : -10.00 dB
Peak : 0.992554
CRC32 hash (test run) : 7C4FCED0
CRC32 hash : 7C4FCED0
CRC32 hash (skip zero) : 8ABDDA27
AccurateRip v1 signature : 9D27BFBE
AccurateRip v2 signature : EF8AAE83
->Track not present in AccurateRip database.
Statistics
Read error : 0
Jitter error (maybe fixed) : 0
Retry sector count : 0
Damaged sector count : 0

Track 04
Filename : /Users/Shared/The National – I Am Easy To Find (2019) [FLAC]/04 Oblivions.flac
Pre-gap length : 00:01:33

Track gain : -10.45 dB
Peak : 0.991974
CRC32 hash (test run) : 322F9190
CRC32 hash : 322F9190
CRC32 hash (skip zero) : 926E373C
AccurateRip v1 signature : C938576C
AccurateRip v2 signature : E7C43982
->Track not present in AccurateRip database.
Statistics
Read error : 0
Jitter error (maybe fixed) : 0
Retry sector count : 0
Damaged sector count : 0

Track 05
Filename : /Users/Shared/The National – I Am Easy To Find (2019) [FLAC]/05 The Pull Of You.flac
Pre-gap length : 00:01:02

Track gain : -11.52 dB
Peak : 0.994904
CRC32 hash (test run) : 6702CC7E
CRC32 hash : 6702CC7E
CRC32 hash (skip zero) : 3B66B835
AccurateRip v1 signature : 20D278B5
AccurateRip v2 signature : 2DBC07D2
->Track not present in AccurateRip database.
Statistics
Read error : 0
Jitter error (maybe fixed) : 0
Retry sector count : 0
Damaged sector count : 0

Track 06
Filename : /Users/Shared/The National – I Am Easy To Find (2019) [FLAC]/06 Hey Rosey.flac
Pre-gap length : 00:01:08

Track gain : -10.88 dB
Peak : 0.993683
CRC32 hash (test run) : 8070E6F4
CRC32 hash : 8070E6F4
CRC32 hash (skip zero) : 54DDF916
AccurateRip v1 signature : B2263D7F
AccurateRip v2 signature : B3245621
->Track not present in AccurateRip database.
Statistics
Read error : 0
Jitter error (maybe fixed) : 0
Retry sector count : 0
Damaged sector count : 0

Track 07
Filename : /Users/Shared/The National – I Am Easy To Find (2019) [FLAC]/07 I Am Easy To Find.flac
Pre-gap length : 00:01:10

Track gain : -8.88 dB
Peak : 0.994781
CRC32 hash (test run) : F9EA1ED5
CRC32 hash : F9EA1ED5
CRC32 hash (skip zero) : 8E5114FF
AccurateRip v1 signature : 7C6808F7
AccurateRip v2 signature : 5CBC8444
->Track not present in AccurateRip database.
Statistics
Read error : 0
Jitter error (maybe fixed) : 0
Retry sector count : 0
Damaged sector count : 0

Track 08
Filename : /Users/Shared/The National – I Am Easy To Find (2019) [FLAC]/08 Her Father In The Pool.flac
Pre-gap length : 00:02:60

Track gain : -3.97 dB
Peak : 0.856262
CRC32 hash (test run) : 3D9DCD5B
CRC32 hash : 3D9DCD5B
CRC32 hash (skip zero) : 2464185C
AccurateRip v1 signature : 7EDEE9CC
AccurateRip v2 signature : E025DD5F
->Track not present in AccurateRip database.
Statistics
Read error : 0
Jitter error (maybe fixed) : 0
Retry sector count : 0
Damaged sector count : 0

Track 09
Filename : /Users/Shared/The National – I Am Easy To Find (2019) [FLAC]/09 Where Is Her Head.flac

Track gain : -11.59 dB
Peak : 0.994049
CRC32 hash (test run) : 4E2CAA54
CRC32 hash : 4E2CAA54
CRC32 hash (skip zero) : E2B85204
AccurateRip v1 signature : 3ABB8EBE
AccurateRip v2 signature : 1DD5EF53
->Track not present in AccurateRip database.
Statistics
Read error : 0
Jitter error (maybe fixed) : 0
Retry sector count : 0
Damaged sector count : 0

Track 10
Filename : /Users/Shared/The National – I Am Easy To Find (2019) [FLAC]/10 Not In Kansas.flac

Track gain : -8.10 dB
Peak : 0.991638
CRC32 hash (test run) : EB4FE0CE
CRC32 hash : EB4FE0CE
CRC32 hash (skip zero) : 67D0F166
AccurateRip v1 signature : 2F238C8D
AccurateRip v2 signature : 1552283F
->Track not present in AccurateRip database.
Statistics
Read error : 0
Jitter error (maybe fixed) : 0
Retry sector count : 0
Damaged sector count : 0

Track 11
Filename : /Users/Shared/The National – I Am Easy To Find (2019) [FLAC]/11 So Far So Fast.flac
Pre-gap length : 00:02:13

Track gain : -9.68 dB
Peak : 0.970184
CRC32 hash (test run) : D3F2023A
CRC32 hash : D3F2023A
CRC32 hash (skip zero) : 6D14DEFF
AccurateRip v1 signature : 0867D8F0
AccurateRip v2 signature : C7A4EB68
->Track not present in AccurateRip database.
Statistics
Read error : 0
Jitter error (maybe fixed) : 0
Retry sector count : 0
Damaged sector count : 0

Track 12
Filename : /Users/Shared/The National – I Am Easy To Find (2019) [FLAC]/12 Dust Swirls In Strange Light.flac
Pre-gap length : 00:01:10

Track gain : -8.39 dB
Peak : 0.993774
CRC32 hash (test run) : 9EEDAB49
CRC32 hash : 9EEDAB49
CRC32 hash (skip zero) : A4C9410B
AccurateRip v1 signature : AE53F54A
AccurateRip v2 signature : 6AFC4279
->Track not present in AccurateRip database.
Statistics
Read error : 0
Jitter error (maybe fixed) : 0
Retry sector count : 0
Damaged sector count : 0

Track 13
Filename : /Users/Shared/The National – I Am Easy To Find (2019) [FLAC]/13 Hairpin Turns.flac

Track gain : -9.73 dB
Peak : 0.993774
CRC32 hash (test run) : 109E0C5E
CRC32 hash : 109E0C5E
CRC32 hash (skip zero) : 5CCA2902
AccurateRip v1 signature : 39CFC58C
AccurateRip v2 signature : C1289001
->Track not present in AccurateRip database.
Statistics
Read error : 0
Jitter error (maybe fixed) : 0
Retry sector count : 0
Damaged sector count : 0

Track 14
Filename : /Users/Shared/The National – I Am Easy To Find (2019) [FLAC]/14 Rylan.flac
Pre-gap length : 00:01:09

Track gain : -11.37 dB
Peak : 0.994049
CRC32 hash (test run) : 38DF6BCF
CRC32 hash : 38DF6BCF
CRC32 hash (skip zero) : BA9D070C
AccurateRip v1 signature : 7B5D6DFC
AccurateRip v2 signature : 33DFFAA4
->Track not present in AccurateRip database.
Statistics
Read error : 0
Jitter error (maybe fixed) : 0
Retry sector count : 0
Damaged sector count : 0

Track 15
Filename : /Users/Shared/The National – I Am Easy To Find (2019) [FLAC]/15 Underwater.flac

Track gain : -9.05 dB
Peak : 0.990936
CRC32 hash (test run) : D3BA347C
CRC32 hash : D3BA347C
CRC32 hash (skip zero) : C37E10D4
AccurateRip v1 signature : 42F6A590
AccurateRip v2 signature : 1E768357
->Track not present in AccurateRip database.
Statistics
Read error : 0
Jitter error (maybe fixed) : 0
Retry sector count : 0
Damaged sector count : 0

Track 16
Filename : /Users/Shared/The National – I Am Easy To Find (2019) [FLAC]/16 Light Years.flac

Track gain : -8.66 dB
Peak : 0.991058
CRC32 hash (test run) : 8FD084D5
CRC32 hash : 8FD084D5
CRC32 hash (skip zero) : 02600A48
AccurateRip v1 signature : AB43A76F
AccurateRip v2 signature : E4BB38D4
->Track not present in AccurateRip database.
Statistics
Read error : 0
Jitter error (maybe fixed) : 0
Retry sector count : 0
Damaged sector count : 0

No errors occurred

End of status report

—–BEGIN XLD SIGNATURE—–
_mc8XH9gXu6kkaAxZwdlA8L8FhY4OptsANKa0OjjSzRNsoFlsXXvYHVPX4F3fNIyIt5kyKVes4sLnwvtFyhRvBUnrAQo5PAqQn6Tqtq
—–END XLD SIGNATURE—–

TITLE “I Am Easy To Find”
PERFORMER “The National”
CATALOG 0191400015425
REM GENRE “Indie Rock”
REM DATE “2019”
REM DISCNUMBER 1
REM TOTALDISCS 1
REM DISCID D30EF010
FILE “CDImage.folder” WAVE
TRACK 01 AUDIO
TITLE “You Had Your Soul With You”
PERFORMER “The National”
ISRC GBAFL1900114
INDEX 01 00:00:00
TRACK 02 AUDIO
TITLE “Quiet Light”
PERFORMER “The National”
ISRC GBAFL1900115
INDEX 01 03:26:21
TRACK 03 AUDIO
TITLE “Roman Holiday”
PERFORMER “The National”
ISRC GBAFL1900116
INDEX 01 07:41:42
TRACK 04 AUDIO
TITLE “Oblivions”
PERFORMER “The National”
ISRC GBAFL1900117
INDEX 01 11:16:26
TRACK 05 AUDIO
TITLE “The Pull Of You”
PERFORMER “The National”
ISRC GBAFL1900118
INDEX 01 15:30:25
TRACK 06 AUDIO
TITLE “Hey Rosey”
PERFORMER “The National”
ISRC GBAFL1900119
INDEX 01 19:28:73
TRACK 07 AUDIO
TITLE “I Am Easy To Find”
PERFORMER “The National”
ISRC GBAFL1900120
INDEX 01 23:43:06
TRACK 08 AUDIO
TITLE “Her Father In The Pool”
PERFORMER “The National”
ISRC GBAFL1900121
INDEX 01 28:13:50
TRACK 09 AUDIO
TITLE “Where Is Her Head”
PERFORMER “The National”
ISRC GBAFL1900122
INDEX 01 29:16:14
TRACK 10 AUDIO
TITLE “Not In Kansas”
PERFORMER “The National”
ISRC GBAFL1900123
INDEX 01 33:57:60
TRACK 11 AUDIO
TITLE “So Far So Fast”
PERFORMER “The National”
ISRC GBAFL1900124
INDEX 01 40:42:39
TRACK 12 AUDIO
TITLE “Dust Swirls In Strange Light”
PERFORMER “The National”
ISRC GBAFL1900125
INDEX 01 47:19:31
TRACK 13 AUDIO
TITLE “Hairpin Turns”
PERFORMER “The National”
ISRC GBAFL1900126
INDEX 01 50:38:16
TRACK 14 AUDIO
TITLE “Rylan”
PERFORMER “The National”
ISRC GBAFL1900127
INDEX 01 55:05:55
TRACK 15 AUDIO
TITLE “Underwater”
PERFORMER “The National”
ISRC GBAFL1900128
INDEX 01 58:49:44
TRACK 16 AUDIO
TITLE “Light Years”
PERFORMER “The National”
ISRC GBAFL1900129
INDEX 01 60:11:05


Spread the Download

Leave a Reply

Your email address will not be published. Required fields are marked *

Enter the text from the image below
 

This site uses Akismet to reduce spam. Learn how your comment data is processed.