The Moody Blues – To Our Children’s Children’s Children (Remastered)




Artist: The Moody Blues
Year: 1969/2008
Genre: Rock
Notes: Discogs
Add. Notes: Remastered
Cover incl.: Yes
Encoder: FLAC
Bitrate: ~900 kBit/s (44.1 kHz/16 Bit/s)
Log & Cue incl.: Yes
Size: 583 MB
Password: “slam” (without ” “)


All Downloads/Hosters are compatible

Download 1
KatFile.com
Turbobit.net
Rapidgator.net
Turbobit.net
Download 2
KatFile.com
Turbobit.net
Rapidgator.net
Turbobit.net

Tracklist:

1 - Higher And Higher - 4:06
2 - The Eyes Of A Child - Part One - 
3:23
3 - Floating - 3:01
4 - The Eyes Of A Child - Part Two - 
1:23
5 - I Never Thought I'd Live To Be A 
Hundred - 1:05
6 - Beyond - 2:58
7 - Out And In - 3:47
8 - Gypsy - 3:33
9 - Eternity Road - 4:19
10 - Candle Of Life - 4:17
11 - Sun Is Still Shining - 3:39
12 - I Never Thought I'd Live To Be A 
Million - 0:33
13 - Watching And Waiting - 4:16
The Bonus Tracks
14 - Gypsy (Alternate Version) - 4:16
15 - Candle Of Life (Alternate 
Version) - 4:55
16 - Sun Is Still Shining (Extended 
Version) - 4:03
17 - Have You Heard - The Voyage - 
Have You Heard - 
5:50
18 - Legend Of A Mind - 4:33

EAC-Log, CUE-Sheed & NFO:

Click to open spoiler
Exact Audio Copy V1.0 beta 3 from 29. August 2011

EAC extraction logfile from 15. October 2017, 18:41

The Moody Blues / To Our Children’s Children’s Children

Used drive : PLEXTOR DVDR PX-L890SA Adapter: 3 ID: 1

Read mode : Secure
Utilize accurate stream : Yes
Defeat audio cache : Yes
Make use of C2 pointers : No

Read offset correction : 6
Overread into Lead-In and Lead-Out : No
Fill up missing offset samples with silence : Yes
Delete leading and trailing silent blocks : No
Null samples used in CRC calculations : Yes
Used interface : Native Win32 interface for Win NT & 2000

Used output format : User Defined Encoder
Selected bitrate : 768 kBit/s
Quality : High
Add ID3 tag : No
Command line compressor : C:\Program Files (x86)\Exact Audio Copy\Flac\flac.exe
Additional command line options : -V -8 -T “Date=%year%” -T “Genre=%genre%” %source%

TOC of the extracted CD

Track | Start | Length | Start sector | End sector
———————————————————
1 | 0:00.00 | 4:06.50 | 0 | 18499
2 | 4:06.50 | 3:23.61 | 18500 | 33785
3 | 7:30.36 | 2:58.63 | 33786 | 47198
4 | 10:29.24 | 1:23.43 | 47199 | 53466
5 | 11:52.67 | 1:05.71 | 53467 | 58412
6 | 12:58.63 | 2:58.37 | 58413 | 71799
7 | 15:57.25 | 3:49.58 | 71800 | 89032
8 | 19:47.08 | 3:33.09 | 89033 | 105016
9 | 23:20.17 | 4:19.14 | 105017 | 124455
10 | 27:39.31 | 4:14.70 | 124456 | 143575
11 | 31:54.26 | 3:39.43 | 143576 | 160043
12 | 35:33.69 | 0:33.39 | 160044 | 162557
13 | 36:07.33 | 4:20.45 | 162558 | 182102
14 | 40:28.03 | 4:18.62 | 182103 | 201514
15 | 44:46.65 | 4:58.46 | 201515 | 223910
16 | 49:45.36 | 4:06.37 | 223911 | 242397
17 | 53:51.73 | 5:50.72 | 242398 | 268719
18 | 59:42.70 | 4:33.23 | 268720 | 289217

Range status and errors

Selected range

Filename H:\MUSIC\1969. The Moody Blues – To Our Children’s Children’s Children (Threshold 530 857-9, EU)\The Moody Blues – To Our Children’s Children’s Children.wav

Peak level 98.8 %
Extraction speed 9.7 X
Range quality 100.0 %
Test CRC C77D97E2
Copy CRC C77D97E2
Copy OK

No errors occurred

AccurateRip summary

Track 1 accurately ripped (confidence 11) [9A39F0C4] (AR v2)
Track 2 accurately ripped (confidence 11) [5AE7A793] (AR v2)
Track 3 accurately ripped (confidence 11) [E7BF7A76] (AR v2)
Track 4 accurately ripped (confidence 11) [70F626CF] (AR v2)
Track 5 accurately ripped (confidence 11) [50088A6E] (AR v2)
Track 6 accurately ripped (confidence 11) [3718A86F] (AR v2)
Track 7 accurately ripped (confidence 11) [87C49A25] (AR v2)
Track 8 accurately ripped (confidence 11) [F03F351B] (AR v2)
Track 9 accurately ripped (confidence 11) [1377FE3A] (AR v2)
Track 10 accurately ripped (confidence 11) [D05ABAB3] (AR v2)
Track 11 accurately ripped (confidence 11) [56C05E5C] (AR v2)
Track 12 accurately ripped (confidence 11) [A7466507] (AR v2)
Track 13 accurately ripped (confidence 11) [EF716B0C] (AR v2)
Track 14 accurately ripped (confidence 10) [B3761667] (AR v2)
Track 15 accurately ripped (confidence 11) [4EE3CBB7] (AR v2)
Track 16 accurately ripped (confidence 11) [085F26E2] (AR v2)
Track 17 accurately ripped (confidence 10) [1B85AF09] (AR v2)
Track 18 accurately ripped (confidence 10) [CF182675] (AR v2)

All tracks accurately ripped

End of status report

==== Log checksum B78CA5B3C9BB15977399E83917227103831FC52B696A596B76D2F364779ADD42 ====

REM GENRE Rock
REM DATE 1969
REM DISCID 080F1012
REM COMMENT “ExactAudioCopy v1.0b3”
PERFORMER “The Moody Blues”
TITLE “To Our Children’s Children’s Children”
FILE “The Moody Blues – To Our Children’s Children’s Children.flac” WAVE
TRACK 01 AUDIO
TITLE “Higher And Higher”
PERFORMER “The Moody Blues”
INDEX 01 00:00:00
TRACK 02 AUDIO
TITLE “Eyes Of A Child I”
PERFORMER “The Moody Blues”
INDEX 01 04:06:50
TRACK 03 AUDIO
TITLE “Floating”
PERFORMER “The Moody Blues”
INDEX 01 07:30:36
TRACK 04 AUDIO
TITLE “Eyes Of A Child II”
PERFORMER “The Moody Blues”
INDEX 01 10:29:24
TRACK 05 AUDIO
TITLE “I Never Thought I’d Live To Be A Hundred”
PERFORMER “The Moody Blues”
INDEX 01 11:52:67
TRACK 06 AUDIO
TITLE “Beyond”
PERFORMER “The Moody Blues”
INDEX 01 12:58:63
TRACK 07 AUDIO
TITLE “Out And In”
PERFORMER “The Moody Blues”
INDEX 01 15:57:25
TRACK 08 AUDIO
TITLE “Gypsy”
PERFORMER “The Moody Blues”
INDEX 01 19:47:08
TRACK 09 AUDIO
TITLE “Eternity Road”
PERFORMER “The Moody Blues”
INDEX 01 23:20:17
TRACK 10 AUDIO
TITLE “Candle Of Life”
PERFORMER “The Moody Blues”
INDEX 01 27:39:31
TRACK 11 AUDIO
TITLE “Sun Is Still Shining”
PERFORMER “The Moody Blues”
INDEX 01 31:54:26
TRACK 12 AUDIO
TITLE “I Never Thought I’d Live To Be A Million”
PERFORMER “The Moody Blues”
INDEX 01 35:33:69
TRACK 13 AUDIO
TITLE “Watching And Waiting”
PERFORMER “The Moody Blues”
INDEX 01 36:07:33
TRACK 14 AUDIO
TITLE “Gypsy (Full Version)”
PERFORMER “The Moody Blues”
INDEX 00 40:23:18
INDEX 01 40:28:03
TRACK 15 AUDIO
TITLE “Candle Of Life (Full Version)”
PERFORMER “The Moody Blues”
INDEX 00 44:43:73
INDEX 01 44:46:65
TRACK 16 AUDIO
TITLE “Sun Is Still Shining (Alternate Mix)”
PERFORMER “The Moody Blues”
INDEX 00 49:42:44
INDEX 01 49:45:36
TRACK 17 AUDIO
TITLE “Have You Heard (BBC radio concert 17 December 1969)”
PERFORMER “The Moody Blues”
INDEX 00 53:49:13
INDEX 01 53:51:73
TRACK 18 AUDIO
TITLE “Legend Of A Mind (BBC radio concert 17 December 1969)”
PERFORMER “The Moody Blues”
INDEX 00 59:28:31
INDEX 01 59:42:70


Leave a Reply

Your email address will not be published. Required fields are marked *

This site uses Akismet to reduce spam. Learn how your comment data is processed.