The Moody Blues – The Present (Remastered)




[Total: 0    Average: 0/5]

Artist: The Moody Blues
Year: 1983/2008
Genre: Rock
Notes: Discogs
Add. Notes: Remastered
Cover incl.: Yes
Encoder: FLAC
Bitrate: ~1000 kBit/s (44.1 kHz/16 Bit/s)
Log & Cue incl.: Yes
Size: 553,2 MB
Password: “slam” (without ” “)


All Downloads/Hosters are compatible

Download 1
KatFile.com
Turbobit.net
FileFactory.com
Rapidgator.net
Download 2
KatFile.com
Turbobit.net
FileFactory.com
Rapidgator.net
Download 3
KatFile.com
Turbobit.net
FileFactory.com
Rapidgator.net

Tracklist:

1 Blue World 5:19
2 Meet Me Halfway 4:08
3 Sitting At The Wheel 5:39
4 Going Nowhere 5:29
5 Hole In The World 1:54
6 Under My Feet 4:50
7 It's Cold Outside Of Your Heart 4:26
8 Running Water 3:22
9 I Am 1:39
10 Sorry 5:00

Bonus Tracks
11 Blue World (Single Edit) 3:39
12 Sitting At The Wheel (Steven Greenberg Remix) 7:32

EAC-Log, CUE-Sheed & NFO:

Click to open spoiler
Exact Audio Copy V1.0 beta 3 from 29. August 2011

EAC extraction logfile from 15. October 2017, 20:11

The Moody Blues / The Present

Used drive : PLEXTOR DVDR PX-L890SA Adapter: 3 ID: 1

Read mode : Secure
Utilize accurate stream : Yes
Defeat audio cache : Yes
Make use of C2 pointers : No

Read offset correction : 6
Overread into Lead-In and Lead-Out : No
Fill up missing offset samples with silence : Yes
Delete leading and trailing silent blocks : No
Null samples used in CRC calculations : Yes
Used interface : Native Win32 interface for Win NT & 2000

Used output format : User Defined Encoder
Selected bitrate : 768 kBit/s
Quality : High
Add ID3 tag : No
Command line compressor : C:\Program Files (x86)\Exact Audio Copy\Flac\flac.exe
Additional command line options : -V -8 -T “Date=%year%” -T “Genre=%genre%” %source%

TOC of the extracted CD

Track | Start | Length | Start sector | End sector
———————————————————
1 | 0:00.00 | 5:19.25 | 0 | 23949
2 | 5:19.25 | 4:08.41 | 23950 | 42590
3 | 9:27.66 | 5:39.56 | 42591 | 68071
4 | 15:07.47 | 5:29.42 | 68072 | 92788
5 | 20:37.14 | 1:54.25 | 92789 | 101363
6 | 22:31.39 | 4:50.66 | 101364 | 123179
7 | 27:22.30 | 4:26.43 | 123180 | 143172
8 | 31:48.73 | 3:22.49 | 143173 | 158371
9 | 35:11.47 | 1:39.18 | 158372 | 165814
10 | 36:50.65 | 5:05.19 | 165815 | 188708
11 | 41:56.09 | 3:41.02 | 188709 | 205285
12 | 45:37.11 | 7:32.21 | 205286 | 239206

Range status and errors

Selected range

Filename H:\MUSIC\1983. The Moody Blues – The Present (Threshold 531 278-9, EU)\The Moody Blues – The Present.wav

Peak level 98.8 %
Extraction speed 8.6 X
Range quality 100.0 %
Test CRC A84A6DDC
Copy CRC A84A6DDC
Copy OK

No errors occurred

AccurateRip summary

Track 1 accurately ripped (confidence 32) [74D7A164] (AR v2)
Track 2 accurately ripped (confidence 32) [36CCC46F] (AR v2)
Track 3 accurately ripped (confidence 31) [78640F41] (AR v2)
Track 4 accurately ripped (confidence 32) [CAF29C11] (AR v2)
Track 5 accurately ripped (confidence 32) [8F068E99] (AR v2)
Track 6 accurately ripped (confidence 32) [04400C66] (AR v2)
Track 7 accurately ripped (confidence 32) [0F7D5F24] (AR v2)
Track 8 accurately ripped (confidence 32) [E24FCC04] (AR v2)
Track 9 accurately ripped (confidence 33) [5BF365D5] (AR v2)
Track 10 accurately ripped (confidence 32) [FDFECAE1] (AR v2)
Track 11 accurately ripped (confidence 30) [FF6E4A4F] (AR v2)
Track 12 accurately ripped (confidence 29) [C2A8EE5B] (AR v2)

All tracks accurately ripped

End of status report

==== Log checksum 12027DA578976F8A016AB8A5B9F0D3E1B25EF43DEF33B0CF11DFA2CE4BBE58F5 ====

REM GENRE Pop
REM DATE 1983
REM DISCID 960C750C
REM COMMENT “ExactAudioCopy v1.0b3”
PERFORMER “The Moody Blues”
TITLE “The Present”
FILE “The Moody Blues – The Present.flac” WAVE
TRACK 01 AUDIO
TITLE “Blue World”
PERFORMER “The Moody Blues”
INDEX 01 00:00:00
TRACK 02 AUDIO
TITLE “Meet Me Halfway”
PERFORMER “The Moody Blues”
INDEX 00 05:19:11
INDEX 01 05:19:25
TRACK 03 AUDIO
TITLE “Sitting At The Wheel”
PERFORMER “The Moody Blues”
INDEX 01 09:27:66
TRACK 04 AUDIO
TITLE “Going Nowhere”
PERFORMER “The Moody Blues”
INDEX 00 15:07:24
INDEX 01 15:07:47
TRACK 05 AUDIO
TITLE “Hole In The World”
PERFORMER “The Moody Blues”
INDEX 01 20:37:14
TRACK 06 AUDIO
TITLE “Under My Feet”
PERFORMER “The Moody Blues”
INDEX 01 22:31:39
TRACK 07 AUDIO
TITLE “It’s Cold Outside Of Your Heart”
PERFORMER “The Moody Blues”
INDEX 01 27:22:30
TRACK 08 AUDIO
TITLE “Running Water”
PERFORMER “The Moody Blues”
INDEX 01 31:48:73
TRACK 09 AUDIO
TITLE “I Am”
PERFORMER “The Moody Blues”
INDEX 01 35:11:47
TRACK 10 AUDIO
TITLE “Sorry”
PERFORMER “The Moody Blues”
INDEX 01 36:50:65
TRACK 11 AUDIO
TITLE “Blue World (Single Edit)”
PERFORMER “The Moody Blues”
INDEX 00 41:51:50
INDEX 01 41:56:09
TRACK 12 AUDIO
TITLE “Sitting At The Wheel (Steven Greenberg Remix)”
PERFORMER “The Moody Blues”
INDEX 00 45:35:44
INDEX 01 45:37:11


Spread the Download

Leave a Reply

Your email address will not be published. Required fields are marked *

Enter the text from the image below
 

This site uses Akismet to reduce spam. Learn how your comment data is processed.