The Moody Blues – The Other Side Of Life (Japanese Edition)




Artist: The Moody Blues
Year: 1986
Genre: Rock
Notes: Discogs
Add. Notes: Japanese Edition
Cover incl.: Yes
Encoder: FLAC
Bitrate: ~900 kBit/s (44.1 kHz/16 Bit/s)
Log & Cue incl.: Yes/Yes
Password: “slam” (without ” “)


All Downloads/Hosters are compatible

Download 1
KatFile.com
Turbobit.net
FileFactory.com
Rapidgator.net
Download 2
KatFile.com
Turbobit.net
FileFactory.com
Rapidgator.net

Tracklist:

1 Your Wildest Dreams 4:50
2 Talkin' Talkin' 3:55
3 Rock 'N' Roll Over You 4:50
4 I Just Don't Care 3:25
5 Running Out Of Love 4:25
6 The Other Side Of Life 6:50
7 The Spirit 5:21
8 Slings And Arrows 4:29
9 It May Be A Fire 4:56

EAC-Log, CUE-Sheed & NFO:

Click to open spoiler
Exact Audio Copy V1.0 beta 3 from 29. August 2011

EAC extraction logfile from 10. April 2016, 12:11

The Moody Blues / The Other Side Of Life

Used drive : PLEXTOR DVDR PX-L890SA Adapter: 5 ID: 1

Read mode : Secure
Utilize accurate stream : Yes
Defeat audio cache : Yes
Make use of C2 pointers : No

Read offset correction : 6
Overread into Lead-In and Lead-Out : No
Fill up missing offset samples with silence : Yes
Delete leading and trailing silent blocks : No
Null samples used in CRC calculations : Yes
Used interface : Native Win32 interface for Win NT & 2000

Used output format : User Defined Encoder
Selected bitrate : 768 kBit/s
Quality : High
Add ID3 tag : No
Command line compressor : C:\Program Files (x86)\Exact Audio Copy\Flac\flac.exe
Additional command line options : -V -8 -T “Date=%year%” -T “Genre=%genre%” %source%

TOC of the extracted CD

Track | Start | Length | Start sector | End sector
———————————————————
1 | 0:00.37 | 4:51.63 | 37 | 21924
2 | 4:52.25 | 3:55.42 | 21925 | 39591
3 | 8:47.67 | 4:50.60 | 39592 | 61401
4 | 13:38.52 | 3:28.55 | 61402 | 77056
5 | 17:07.32 | 4:25.05 | 77057 | 96936
6 | 21:32.37 | 6:52.38 | 96937 | 127874
7 | 28:25.00 | 4:19.10 | 127875 | 147309
8 | 32:44.10 | 4:29.27 | 147310 | 167511
9 | 37:13.37 | 4:56.50 | 167512 | 189761

Range status and errors

Selected range

Filename H:\MUSIC\1986. The Moody Blues – The Other Side Of Life (Polydor P33P 20044, Japan, 1986)\The Moody Blues – The Other Side Of Life.wav

Peak level 97.8 %
Extraction speed 8.6 X
Range quality 99.9 %
Test CRC 9C812CB1
Copy CRC 9C812CB1
Copy OK

No errors occurred

AccurateRip summary

Track 1 accurately ripped (confidence 1) [C819537F] (AR v2)
Track 2 accurately ripped (confidence 1) [E168AF20] (AR v2)
Track 3 cannot be verified as accurate (confidence 1) [7DE88F4F], AccurateRip returned [99AAE077] (AR v2)
Track 4 cannot be verified as accurate (confidence 1) [D0A6CD2C], AccurateRip returned [85747BD5] (AR v2)
Track 5 cannot be verified as accurate (confidence 1) [CB635310], AccurateRip returned [8DC706F7] (AR v2)
Track 6 cannot be verified as accurate (confidence 1) [7E08EF33], AccurateRip returned [A5593BC3] (AR v2)
Track 7 cannot be verified as accurate (confidence 1) [1E863288], AccurateRip returned [B89548D4] (AR v2)
Track 8 cannot be verified as accurate (confidence 1) [5F8CB34E], AccurateRip returned [10A48D4B] (AR v2)
Track 9 accurately ripped (confidence 1) [74281628] (AR v2)

3 track(s) accurately ripped
6 track(s) could not be verified as accurate

Some tracks could not be verified as accurate

End of status report

==== Log checksum E60D3488FCD6835C01AFE7F15EBD46AE277115F6FCD73B3D9142EA9B50D5529F ====

REM GENRE “Progressive Rock”
REM DATE 1986
REM DISCID 7809E209
REM COMMENT “ExactAudioCopy v1.0b3”
PERFORMER “The Moody Blues”
TITLE “The Other Side Of Life”
FILE “The Moody Blues – The Other Side Of Life.flac” WAVE
TRACK 01 AUDIO
TITLE “Your Wildest Dreams”
PERFORMER “The Moody Blues”
INDEX 00 00:00:00
INDEX 01 00:00:37
TRACK 02 AUDIO
TITLE “Talkin’ Talkin'”
PERFORMER “The Moody Blues”
INDEX 01 04:52:25
TRACK 03 AUDIO
TITLE “Rock ‘n’ Roll Over You”
PERFORMER “The Moody Blues”
INDEX 00 08:47:37
INDEX 01 08:47:67
TRACK 04 AUDIO
TITLE “I Just Don’t Care”
PERFORMER “The Moody Blues”
INDEX 00 13:38:00
INDEX 01 13:38:52
TRACK 05 AUDIO
TITLE “Running Out Of Love”
PERFORMER “The Moody Blues”
INDEX 00 17:05:50
INDEX 01 17:07:32
TRACK 06 AUDIO
TITLE “The Other Side Of Life”
PERFORMER “The Moody Blues”
INDEX 00 21:31:00
INDEX 01 21:32:37
TRACK 07 AUDIO
TITLE “The Spirit”
PERFORMER “The Moody Blues”
INDEX 00 28:23:62
INDEX 01 28:25:00
TRACK 08 AUDIO
TITLE “Slings And Arrows”
PERFORMER “The Moody Blues”
INDEX 00 32:43:25
INDEX 01 32:44:10
TRACK 09 AUDIO
TITLE “It May Be A Fire”
PERFORMER “The Moody Blues”
INDEX 00 37:11:37
INDEX 01 37:13:37


Leave a Reply

Your email address will not be published. Required fields are marked *

Enter the text from the image below
 

This site uses Akismet to reduce spam. Learn how your comment data is processed.