The Moody Blues – The Magnificent Moodies (Reissue)




Artist: The Moody Blues
Year: 1965/2006
Genre: Rock
Notes: Discogs
Add. Notes: Reissue
Cover incl.: Yes
Encoder: FLAC
Bitrate: ~700 kBit/s (44.1 kHz/16 Bit/s)
Log & Cue incl.: Yes
Size: 382,6 MB
Password: “slam” (without ” “)


All Downloads/Hosters are compatible

Download 1
KatFile.com
Turbobit.net
FileFactory.com
Rapidgator.net
Download 2
KatFile.com
Turbobit.net
FileFactory.com
Rapidgator.net

Tracklist:

1 I'll Go Crazy 
2 Something You Got 
3 Go Now 
4 Can't Nobody Love You 
5 I Don't Mind 
6 I've Got A Dream 
7 Let Me Go 
8 Stop 
9 Thank You Baby 
10 It Ain't Necessarily So 
11 True Story 
12 Bye Bye Bird 
Bonus Tracks
13 People Gotta Go 
14 Steal Your Heart Away 
15 Lose Your Money (But Don't Lose Your Mind) 
16 It's Easy Child 
17 I Don't Want To Go On Without You 
18 Time Is On My Side 
19 From The Bottom Of My Heart (I Love You) 
20 And My Baby's Gone 
21 Everyday 
22 You Don't (All The Time) 
23 Boulevard De La Madelaine 
24 This Is My House (But Nobody Calls) 
25 Life's Not Life 
26 He Can Win

EAC-Log, CUE-Sheed & NFO:

Click to open spoiler
Exact Audio Copy V1.0 beta 3 from 29. August 2011

EAC extraction logfile from 15. October 2017, 15:44

Moody Blues / The Magnificent Moodies

Used drive : PLEXTOR DVDR PX-L890SA Adapter: 3 ID: 1

Read mode : Secure
Utilize accurate stream : Yes
Defeat audio cache : Yes
Make use of C2 pointers : No

Read offset correction : 6
Overread into Lead-In and Lead-Out : No
Fill up missing offset samples with silence : Yes
Delete leading and trailing silent blocks : No
Null samples used in CRC calculations : Yes
Used interface : Native Win32 interface for Win NT & 2000

Used output format : User Defined Encoder
Selected bitrate : 768 kBit/s
Quality : High
Add ID3 tag : No
Command line compressor : C:\Program Files (x86)\Exact Audio Copy\Flac\flac.exe
Additional command line options : -V -8 -T “Date=%year%” -T “Genre=%genre%” %source%

TOC of the extracted CD

Track | Start | Length | Start sector | End sector
———————————————————
1 | 0:00.00 | 2:11.09 | 0 | 9833
2 | 2:11.09 | 2:52.01 | 9834 | 22734
3 | 5:03.10 | 3:14.40 | 22735 | 37324
4 | 8:17.50 | 4:03.19 | 37325 | 55568
5 | 12:20.69 | 3:27.60 | 55569 | 71153
6 | 15:48.54 | 2:52.49 | 71154 | 84102
7 | 18:41.28 | 3:13.46 | 84103 | 98623
8 | 21:54.74 | 2:05.31 | 98624 | 108029
9 | 24:00.30 | 2:30.17 | 108030 | 119296
10 | 26:30.47 | 3:21.40 | 119297 | 134411
11 | 29:52.12 | 1:45.14 | 134412 | 142300
12 | 31:37.26 | 2:50.44 | 142301 | 155094
13 | 34:27.70 | 2:32.51 | 155095 | 166545
14 | 37:00.46 | 2:15.11 | 166546 | 176681
15 | 39:15.57 | 2:00.19 | 176682 | 185700
16 | 41:16.01 | 3:13.29 | 185701 | 200204
17 | 44:29.30 | 2:46.19 | 200205 | 212673
18 | 47:15.49 | 3:03.43 | 212674 | 226441
19 | 50:19.17 | 3:28.07 | 226442 | 242048
20 | 53:47.24 | 2:21.43 | 242049 | 252666
21 | 56:08.67 | 1:49.13 | 252667 | 260854
22 | 57:58.05 | 2:21.71 | 260855 | 271500
23 | 60:20.01 | 2:56.00 | 271501 | 284700
24 | 63:16.01 | 2:35.51 | 284701 | 296376
25 | 65:51.52 | 2:35.66 | 296377 | 308067
26 | 68:27.43 | 2:25.05 | 308068 | 318947

Range status and errors

Selected range

Filename H:\MUSIC\1965. The Moody Blues – The Magnificent Moodies (Repertoire REP 5077, EU)\Moody Blues – The Magnificent Moodies.wav

Peak level 100.0 %
Extraction speed 10.2 X
Range quality 100.0 %
Test CRC 6DFE9488
Copy CRC 6DFE9488
Copy OK

No errors occurred

AccurateRip summary

Track 1 accurately ripped (confidence 11) [519E1769] (AR v2)
Track 2 accurately ripped (confidence 11) [C9FC9A7C] (AR v2)
Track 3 accurately ripped (confidence 11) [4E72B2EA] (AR v2)
Track 4 accurately ripped (confidence 11) [F624DA49] (AR v2)
Track 5 accurately ripped (confidence 11) [6CE33D41] (AR v2)
Track 6 accurately ripped (confidence 11) [6AB1139A] (AR v2)
Track 7 accurately ripped (confidence 11) [CBE85AED] (AR v2)
Track 8 accurately ripped (confidence 11) [5F05DF53] (AR v2)
Track 9 accurately ripped (confidence 11) [7E81D4D8] (AR v2)
Track 10 accurately ripped (confidence 11) [6F1760CF] (AR v2)
Track 11 accurately ripped (confidence 11) [BD000EB1] (AR v2)
Track 12 accurately ripped (confidence 11) [A1A1F60B] (AR v2)
Track 13 accurately ripped (confidence 11) [C6FB2E7E] (AR v2)
Track 14 accurately ripped (confidence 11) [22C77932] (AR v2)
Track 15 accurately ripped (confidence 11) [C7DC18D1] (AR v2)
Track 16 accurately ripped (confidence 11) [58C5FF65] (AR v2)
Track 17 accurately ripped (confidence 11) [D447C38F] (AR v2)
Track 18 accurately ripped (confidence 11) [BBF9B285] (AR v2)
Track 19 accurately ripped (confidence 11) [0A02D20E] (AR v2)
Track 20 accurately ripped (confidence 11) [380A4DC3] (AR v2)
Track 21 accurately ripped (confidence 11) [0D7D2392] (AR v2)
Track 22 accurately ripped (confidence 11) [9EDBBCB3] (AR v2)
Track 23 accurately ripped (confidence 11) [3A9FEE73] (AR v2)
Track 24 accurately ripped (confidence 11) [A9E101D5] (AR v2)
Track 25 accurately ripped (confidence 11) [7683D8FE] (AR v2)
Track 26 accurately ripped (confidence 11) [C7E65095] (AR v2)

All tracks accurately ripped

End of status report

==== Log checksum E9372222C6BEEF98D3229DFC489F3411930D03B1E9081660A4C0C6DC0CE4F8D9 ====

REM GENRE Rock
REM DATE 2006
REM DISCID 80109C1A
REM COMMENT “ExactAudioCopy v1.0b3”
PERFORMER “Moody Blues”
TITLE “The Magnificent Moodies”
FILE “Moody Blues – The Magnificent Moodies.flac” WAVE
TRACK 01 AUDIO
TITLE “I’ll go crazy”
PERFORMER “Moody Blues”
FLAGS DCP
INDEX 01 00:00:00
TRACK 02 AUDIO
TITLE “Something you got”
PERFORMER “Moody Blues”
FLAGS DCP
INDEX 00 02:09:09
INDEX 01 02:11:09
TRACK 03 AUDIO
TITLE “Go now!”
PERFORMER “Moody Blues”
FLAGS DCP
INDEX 00 05:01:10
INDEX 01 05:03:10
TRACK 04 AUDIO
TITLE “Can’t nobody love you”
PERFORMER “Moody Blues”
FLAGS DCP
INDEX 00 08:15:50
INDEX 01 08:17:50
TRACK 05 AUDIO
TITLE “I don’t mind”
PERFORMER “Moody Blues”
FLAGS DCP
INDEX 00 12:18:69
INDEX 01 12:20:69
TRACK 06 AUDIO
TITLE “I’ve got a dream”
PERFORMER “Moody Blues”
FLAGS DCP
INDEX 00 15:46:54
INDEX 01 15:48:54
TRACK 07 AUDIO
TITLE “Let me go”
PERFORMER “Moody Blues”
FLAGS DCP
INDEX 00 18:39:28
INDEX 01 18:41:28
TRACK 08 AUDIO
TITLE “Stop”
PERFORMER “Moody Blues”
FLAGS DCP
INDEX 00 21:52:74
INDEX 01 21:54:74
TRACK 09 AUDIO
TITLE “Thank you baby”
PERFORMER “Moody Blues”
FLAGS DCP
INDEX 00 23:58:30
INDEX 01 24:00:30
TRACK 10 AUDIO
TITLE “It ain’t necessarily so”
PERFORMER “Moody Blues”
FLAGS DCP
INDEX 00 26:28:47
INDEX 01 26:30:47
TRACK 11 AUDIO
TITLE “True story”
PERFORMER “Moody Blues”
FLAGS DCP
INDEX 00 29:50:12
INDEX 01 29:52:12
TRACK 12 AUDIO
TITLE “Bye bye bird”
PERFORMER “Moody Blues”
FLAGS DCP
INDEX 00 31:35:26
INDEX 01 31:37:26
TRACK 13 AUDIO
TITLE “People gotta go (Bonus)”
PERFORMER “Moody Blues”
FLAGS DCP
INDEX 00 34:25:70
INDEX 01 34:27:70
TRACK 14 AUDIO
TITLE “Steal your love away”
PERFORMER “Moody Blues”
FLAGS DCP
INDEX 00 36:58:46
INDEX 01 37:00:46
TRACK 15 AUDIO
TITLE “Lose your money (but don’t loose your mind)”
PERFORMER “Moody Blues”
FLAGS DCP
INDEX 00 39:13:57
INDEX 01 39:15:57
TRACK 16 AUDIO
TITLE “It’s easy child”
PERFORMER “Moody Blues”
FLAGS DCP
INDEX 00 41:14:01
INDEX 01 41:16:01
TRACK 17 AUDIO
TITLE “I don’t want to go on without you”
PERFORMER “Moody Blues”
FLAGS DCP
INDEX 00 44:27:30
INDEX 01 44:29:30
TRACK 18 AUDIO
TITLE “Time is on my side”
PERFORMER “Moody Blues”
FLAGS DCP
INDEX 00 47:13:49
INDEX 01 47:15:49
TRACK 19 AUDIO
TITLE “From the bottom of my heart (I love you)”
PERFORMER “Moody Blues”
FLAGS DCP
INDEX 00 50:17:17
INDEX 01 50:19:17
TRACK 20 AUDIO
TITLE “And my baby’s gone”
PERFORMER “Moody Blues”
FLAGS DCP
INDEX 00 53:45:24
INDEX 01 53:47:24
TRACK 21 AUDIO
TITLE “Everyday”
PERFORMER “Moody Blues”
FLAGS DCP
INDEX 00 56:06:67
INDEX 01 56:08:67
TRACK 22 AUDIO
TITLE “You don’t (all the time)”
PERFORMER “Moody Blues”
FLAGS DCP
INDEX 00 57:56:05
INDEX 01 57:58:05
TRACK 23 AUDIO
TITLE “Boulevard de la Madelaine”
PERFORMER “Moody Blues”
FLAGS DCP
INDEX 00 60:18:01
INDEX 01 60:20:01
TRACK 24 AUDIO
TITLE “This is my house (but nobody calls)”
PERFORMER “Moody Blues”
FLAGS DCP
INDEX 00 63:14:01
INDEX 01 63:16:01
TRACK 25 AUDIO
TITLE “Life’s not live”
PERFORMER “Moody Blues”
FLAGS DCP
INDEX 00 65:49:52
INDEX 01 65:51:52
TRACK 26 AUDIO
TITLE “He can win”
PERFORMER “Moody Blues”
FLAGS DCP
INDEX 00 68:25:43
INDEX 01 68:27:43


Leave a Reply

Your email address will not be published. Required fields are marked *

This site uses Akismet to reduce spam. Learn how your comment data is processed.