The Moody Blues – Sur La Mer




Artist: The Moody Blues
Year: 1988
Genre: Rock
Notes: Discogs
Add. Notes:
Cover incl.: Yes
Encoder: FLAC
Bitrate: ~800 kBit/s (44.1 kHz/16 Bit/s)
Log & Cue incl.: Yes/Yes
Size: 399,1 MB
Password: “slam” (without ” “)


All Downloads/Hosters are compatible

Download 1
KatFile.com
Turbobit.net
FileFactory.com
Rapidgator.net
Download 2
KatFile.com
Turbobit.net
FileFactory.com
Rapidgator.net

Tracklist:

1 I Know You're Out There Somewhere 6:38
2 Want To Be With You 4:48
3 River Of Endless Love 4:46
4 No More Lies 5:15
5 Here Comes The Weekend 4:16
6 Vintage Wine 3:38
7 Breaking Point 4:55
8 Miracle 4:57
9 Love Is On The Run 5:02
10 Deep 6:52

EAC-Log, CUE-Sheed & NFO:

Click to open spoiler
Exact Audio Copy V1.0 beta 3 from 29. August 2011

EAC extraction logfile from 15. October 2017, 20:28

The Moody Blues / Sur La Mer

Used drive : PLEXTOR DVDR PX-L890SA Adapter: 3 ID: 1

Read mode : Secure
Utilize accurate stream : Yes
Defeat audio cache : Yes
Make use of C2 pointers : No

Read offset correction : 6
Overread into Lead-In and Lead-Out : No
Fill up missing offset samples with silence : Yes
Delete leading and trailing silent blocks : No
Null samples used in CRC calculations : Yes
Used interface : Native Win32 interface for Win NT & 2000

Used output format : User Defined Encoder
Selected bitrate : 768 kBit/s
Quality : High
Add ID3 tag : No
Command line compressor : C:\Program Files (x86)\Exact Audio Copy\Flac\flac.exe
Additional command line options : -V -8 -T “Date=%year%” -T “Genre=%genre%” %source%

TOC of the extracted CD

Track | Start | Length | Start sector | End sector
———————————————————
1 | 0:00.32 | 6:37.60 | 32 | 29866
2 | 6:38.17 | 4:48.73 | 29867 | 51539
3 | 11:27.15 | 4:45.70 | 51540 | 72984
4 | 16:13.10 | 5:15.45 | 72985 | 96654
5 | 21:28.55 | 4:16.27 | 96655 | 115881
6 | 25:45.07 | 3:38.20 | 115882 | 132251
7 | 29:23.27 | 4:55.13 | 132252 | 154389
8 | 34:18.40 | 4:57.25 | 154390 | 176689
9 | 39:15.65 | 5:02.40 | 176690 | 199379
10 | 44:18.30 | 6:50.55 | 199380 | 230184

Range status and errors

Selected range

Filename H:\MUSIC\1988. The Moody Blues – Sur La Mer (Polydor 835 756-2 , Germany)\The Moody Blues – Sur La Mer.wav

Peak level 63.5 %
Extraction speed 8.5 X
Range quality 100.0 %
Test CRC 535F0BBB
Copy CRC 535F0BBB
Copy OK

No errors occurred

AccurateRip summary

Track 1 accurately ripped (confidence 10) [62D5D0E4] (AR v2)
Track 2 accurately ripped (confidence 12) [F76C1F80] (AR v2)
Track 3 accurately ripped (confidence 11) [FF0D17F6] (AR v2)
Track 4 accurately ripped (confidence 10) [589232D0] (AR v2)
Track 5 accurately ripped (confidence 11) [B2BC3E95] (AR v2)
Track 6 accurately ripped (confidence 11) [03D6AE77] (AR v2)
Track 7 accurately ripped (confidence 11) [FCE14D49] (AR v2)
Track 8 accurately ripped (confidence 11) [D2A42E23] (AR v2)
Track 9 accurately ripped (confidence 11) [C14517F2] (AR v2)
Track 10 accurately ripped (confidence 10) [6091F4FA] (AR v2)

All tracks accurately ripped

End of status report

==== Log checksum 353E33C4632418EE3105E3CDA6664903FD670B0FBD5B9AFBAF65DA3A3AE0B0CD ====

REM GENRE “Progressive Rock”
REM DATE 1988
REM DISCID 890BFD0A
REM COMMENT “ExactAudioCopy v1.0b3”
PERFORMER “The Moody Blues”
TITLE “Sur La Mer”
FILE “The Moody Blues – Sur La Mer.flac” WAVE
TRACK 01 AUDIO
TITLE “I Know You’re Out There Somewhere”
PERFORMER “The Moody Blues”
INDEX 00 00:00:00
INDEX 01 00:00:32
TRACK 02 AUDIO
TITLE “Want to Be With You”
PERFORMER “The Moody Blues”
INDEX 00 06:37:37
INDEX 01 06:38:17
TRACK 03 AUDIO
TITLE “River of Endless Love”
PERFORMER “The Moody Blues”
INDEX 00 11:26:20
INDEX 01 11:27:15
TRACK 04 AUDIO
TITLE “No More Lies”
PERFORMER “The Moody Blues”
INDEX 00 16:11:55
INDEX 01 16:13:10
TRACK 05 AUDIO
TITLE “Here Comes the Weekend”
PERFORMER “The Moody Blues”
INDEX 00 21:28:10
INDEX 01 21:28:55
TRACK 06 AUDIO
TITLE “Vintage Wine”
PERFORMER “The Moody Blues”
INDEX 00 25:42:53
INDEX 01 25:45:07
TRACK 07 AUDIO
TITLE “Breaking Point”
PERFORMER “The Moody Blues”
INDEX 01 29:23:27
TRACK 08 AUDIO
TITLE “Miracle”
PERFORMER “The Moody Blues”
INDEX 01 34:18:40
TRACK 09 AUDIO
TITLE “Love Is on the Run”
PERFORMER “The Moody Blues”
INDEX 00 39:13:45
INDEX 01 39:15:65
TRACK 10 AUDIO
TITLE “Deep”
PERFORMER “The Moody Blues”
INDEX 01 44:18:30


Leave a Reply

Your email address will not be published. Required fields are marked *

Enter the text from the image below
 

This site uses Akismet to reduce spam. Learn how your comment data is processed.