The Moody Blues – Seventh Sojourn (Remastered)




Artist: The Moody Blues
Year: 1972/2008
Genre: Rock
Notes: Discogs
Add. Notes: Remastered
Cover incl.: Yes
Encoder: FLAC
Bitrate: ~900 kBit/s (44.1 kHz/16 Bit/s)
Log & Cue incl.: Yes
Size: 567 MB
Password: “slam” (without ” “)


All Downloads/Hosters are compatible

Download 1
KatFile.com
Turbobit.net
FileFactory.com
Rapidgator.net
Download 2
KatFile.com
Turbobit.net
FileFactory.com
Rapidgator.net

Tracklist:

1 - Lost In A Lost World - 4:41
2 - New Horizons - 5:10
3 - For My Lady - 3:57
4 - Isn't Life Strange (Full Version) - 
6:00
5 - You And Me - 4:19
6 - The Land Of Make Believe - 4:51
7 - When You're A Free Man - 6:05
8 - I'm Just A Singer (In A Rock And 
Roll Band) - 4:19
Bonus Tracks
9 - Isn't Life Strange (Original 
Version) - 8:10
10 - You And Me (Beckthorns Backing 
Track) - 6:33
11 - Lost In A Lost World 
(Instrumental Demo) - 4:41
12 - Island - 4:30

EAC-Log, CUE-Sheed & NFO:

Click to open spoiler
Exact Audio Copy V1.0 beta 3 from 29. August 2011

EAC extraction logfile from 6. November 2017, 16:14

The Moody Blues / Seventh Sojourn

Used drive : PLEXTOR DVDR PX-L890SA Adapter: 3 ID: 1

Read mode : Secure
Utilize accurate stream : Yes
Defeat audio cache : Yes
Make use of C2 pointers : No

Read offset correction : 6
Overread into Lead-In and Lead-Out : No
Fill up missing offset samples with silence : Yes
Delete leading and trailing silent blocks : No
Null samples used in CRC calculations : Yes
Used interface : Native Win32 interface for Win NT & 2000

Used output format : User Defined Encoder
Selected bitrate : 768 kBit/s
Quality : High
Add ID3 tag : No
Command line compressor : C:\Program Files (x86)\Exact Audio Copy\Flac\flac.exe
Additional command line options : -V -8 -T “Date=%year%” -T “Genre=%genre%” %source%

TOC of the extracted CD

Track | Start | Length | Start sector | End sector
———————————————————
1 | 0:00.00 | 4:42.17 | 0 | 21166
2 | 4:42.17 | 5:10.40 | 21167 | 44456
3 | 9:52.57 | 3:57.55 | 44457 | 62286
4 | 13:50.37 | 6:08.19 | 62287 | 89905
5 | 19:58.56 | 4:19.66 | 89906 | 109396
6 | 24:18.47 | 4:51.10 | 109397 | 131231
7 | 29:09.57 | 6:05.28 | 131232 | 158634
8 | 35:15.10 | 4:22.26 | 158635 | 178310
9 | 39:37.36 | 8:14.20 | 178311 | 215380
10 | 47:51.56 | 6:33.23 | 215381 | 244878
11 | 54:25.04 | 4:41.38 | 244879 | 265991
12 | 59:06.42 | 4:30.61 | 265992 | 286302

Range status and errors

Selected range

Filename H:\MUSIC\1972. The Moody Blues – Seventh Sojourn (Threshhold 530 662-8, EU)\The Moody Blues – Seventh Sojourn.wav

Peak level 98.6 %
Extraction speed 9.6 X
Range quality 99.9 %
Test CRC 4AE8F7C2
Copy CRC 4AE8F7C2
Copy OK

No errors occurred

AccurateRip summary

Track 1 accurately ripped (confidence 4) [C497D49D] (AR v2)
Track 2 accurately ripped (confidence 4) [F9982B35] (AR v2)
Track 3 accurately ripped (confidence 4) [ECFE1CA5] (AR v2)
Track 4 accurately ripped (confidence 4) [BDAD26B7] (AR v2)
Track 5 accurately ripped (confidence 4) [61CF8B9C] (AR v2)
Track 6 accurately ripped (confidence 4) [8AFFB358] (AR v2)
Track 7 accurately ripped (confidence 4) [D577BA3F] (AR v2)
Track 8 accurately ripped (confidence 4) [F8B82A97] (AR v2)
Track 9 accurately ripped (confidence 4) [561E9110] (AR v2)
Track 10 accurately ripped (confidence 4) [D1B97E4A] (AR v2)
Track 11 accurately ripped (confidence 4) [E99DA054] (AR v2)
Track 12 accurately ripped (confidence 4) [8C99B710] (AR v2)

All tracks accurately ripped

End of status report

==== Log checksum 99E02DEF7AB83A3B730618DCCE350347D5F7A02A3AEB35884C91795BB1D3C8E6 ====

REM GENRE “Progressive Rock”
REM DATE 1972
REM DISCID A50EE90C
REM COMMENT “ExactAudioCopy v1.0b3”
PERFORMER “The Moody Blues”
TITLE “Seventh Sojourn”
FILE “The Moody Blues – Seventh Sojourn.flac” WAVE
TRACK 01 AUDIO
TITLE “Lost In A Lost World”
PERFORMER “The Moody Blues”
INDEX 01 00:00:00
TRACK 02 AUDIO
TITLE “New Horizons”
PERFORMER “The Moody Blues”
INDEX 01 04:42:17
TRACK 03 AUDIO
TITLE “For My Lady”
PERFORMER “The Moody Blues”
INDEX 01 09:52:57
TRACK 04 AUDIO
TITLE “Isn’t Life Strange”
PERFORMER “The Moody Blues”
INDEX 01 13:50:37
TRACK 05 AUDIO
TITLE “You And Me”
PERFORMER “The Moody Blues”
INDEX 01 19:58:56
TRACK 06 AUDIO
TITLE “The Land Of Make Believe”
PERFORMER “The Moody Blues”
INDEX 01 24:18:47
TRACK 07 AUDIO
TITLE “When You’re A Free Man”
PERFORMER “The Moody Blues”
INDEX 01 29:09:57
TRACK 08 AUDIO
TITLE “I’m Just A Singer (In A Rock And Roll Band)”
PERFORMER “The Moody Blues”
INDEX 01 35:15:10
TRACK 09 AUDIO
TITLE “Isn’t Life Strange (Original Version)”
PERFORMER “The Moody Blues”
INDEX 01 39:37:36
TRACK 10 AUDIO
TITLE “You And Me (Beckthorns Backing Track)”
PERFORMER “The Moody Blues”
INDEX 01 47:51:56
TRACK 11 AUDIO
TITLE “Lost In A Lost World (Instrumental Demo)”
PERFORMER “The Moody Blues”
INDEX 01 54:25:04
TRACK 12 AUDIO
TITLE “Island”
PERFORMER “The Moody Blues”
INDEX 01 59:06:42


Leave a Reply

Your email address will not be published. Required fields are marked *

This site uses Akismet to reduce spam. Learn how your comment data is processed.