The Moody Blues – On The Threshold Of A Dream (Remastered)




[Total: 0    Average: 0/5]

Artist: The Moody Blues
Year: 1969/2008
Genre: Rock
Notes: Discogs
Add. Notes: Remastered
Cover incl.: Yes
Encoder: FLAC
Bitrate: ~700 kBit/s (44.1 kHz/16 Bit/s)
Log & Cue incl.: Yes
Size: 546,48 MB
Password: “slam” (without ” “)


All Downloads/Hosters are compatible

Download 1
Share-online.biz
KatFile.com
Rapidgator.net
Mexa.sh
Download 2
Share-online.biz
KatFile.com
Rapidgator.net
Mexa.sh

Tracklist:

1 - In The Beginning - 2:07
2 - Lovely To See You - 2:34
3 - Dear Diary - 3:56
4 - Send Me No Wine - 2:21
5 - To Share Our Love - 2:53
6 - So Deep Within You - 3:07
7 - Never Comes The Day - 4:43
8 - Lazy Day - 2:43
9 - Are You Sitting Comfortably - 3:30
10 - The Dream - 0:57
11 - Have You Heard - Part 1 - 1:28
12 - The Voyage - 4:10
13 - Have You Heard - Part 2 - 2:36

Bonus Tracks
14 - In The Beginning (Full Version) - 3:26
15 - So Deep Within You (Extended Version) - 3:32
16 - Dear Diary (Alternate Vocal Mix) - 4:01
17 - Have You Heard (Original Take) - 3:51
18 - The Voyage (Original Take) - 4:37
19 - Lovely To See You - 2:26
20 - Send Me No Wine - 2:39
21 - So Deep Within You - 3:06
22 - Are You Sitting Comfortably - 3:33

EAC-Log, CUE-Sheed & NFO:

Click to open spoiler
Exact Audio Copy V1.0 beta 3 from 29. August 2011

EAC extraction logfile from 15. October 2017, 18:19

The Moody Blues / On the Threshold of a Dream

Used drive : PLEXTOR DVDR PX-L890SA Adapter: 3 ID: 1

Read mode : Secure
Utilize accurate stream : Yes
Defeat audio cache : Yes
Make use of C2 pointers : No

Read offset correction : 6
Overread into Lead-In and Lead-Out : No
Fill up missing offset samples with silence : Yes
Delete leading and trailing silent blocks : No
Null samples used in CRC calculations : Yes
Used interface : Native Win32 interface for Win NT & 2000

Used output format : User Defined Encoder
Selected bitrate : 768 kBit/s
Quality : High
Add ID3 tag : No
Command line compressor : C:\Program Files (x86)\Exact Audio Copy\Flac\flac.exe
Additional command line options : -V -8 -T “Date=%year%” -T “Genre=%genre%” %source%

TOC of the extracted CD

Track | Start | Length | Start sector | End sector
———————————————————
1 | 0:00.00 | 2:08.63 | 0 | 9662
2 | 2:08.63 | 2:34.29 | 9663 | 21241
3 | 4:43.17 | 3:56.52 | 21242 | 38993
4 | 8:39.69 | 2:20.09 | 38994 | 49502
5 | 11:00.03 | 2:54.48 | 49503 | 62600
6 | 13:54.51 | 3:07.31 | 62601 | 76656
7 | 17:02.07 | 4:43.52 | 76657 | 97933
8 | 21:45.59 | 2:43.46 | 97934 | 110204
9 | 24:29.30 | 3:29.52 | 110205 | 125931
10 | 27:59.07 | 0:58.33 | 125932 | 130314
11 | 28:57.40 | 1:28.27 | 130315 | 136941
12 | 30:25.67 | 4:11.02 | 136942 | 155768
13 | 34:36.69 | 2:31.27 | 155769 | 167120
14 | 37:08.21 | 3:28.28 | 167121 | 182748
15 | 40:36.49 | 3:29.71 | 182749 | 198494
16 | 44:06.45 | 4:05.10 | 198495 | 216879
17 | 48:11.55 | 3:52.49 | 216880 | 234328
18 | 52:04.29 | 4:19.55 | 234329 | 253808
19 | 56:24.09 | 2:26.04 | 253809 | 264762
20 | 58:50.13 | 2:40.26 | 264763 | 276788
21 | 61:30.39 | 3:08.36 | 276789 | 290924
22 | 64:39.00 | 3:38.67 | 290925 | 307341

Range status and errors

Selected range

Filename H:\MUSIC\1969. The Moody Blues – On The Threshold Of A Dream (Deram 530 662-5, EU)\The Moody Blues – On the Threshold of a Dream.wav

Peak level 97.4 %
Extraction speed 10.0 X
Range quality 99.9 %
Test CRC C7437D02
Copy CRC C7437D02
Copy OK

No errors occurred

AccurateRip summary

Track 1 accurately ripped (confidence 100) [740F1391] (AR v2)
Track 2 accurately ripped (confidence 100) [4451ECC7] (AR v2)
Track 3 accurately ripped (confidence 100) [41756FA3] (AR v2)
Track 4 accurately ripped (confidence 100) [B236834D] (AR v2)
Track 5 accurately ripped (confidence 100) [0D53150F] (AR v2)
Track 6 accurately ripped (confidence 99) [095EF5DD] (AR v2)
Track 7 accurately ripped (confidence 100) [BE58B455] (AR v2)
Track 8 accurately ripped (confidence 99) [7858F527] (AR v2)
Track 9 accurately ripped (confidence 100) [C8CF2E3F] (AR v2)
Track 10 accurately ripped (confidence 100) [210C0692] (AR v2)
Track 11 accurately ripped (confidence 100) [1F6EE9BC] (AR v2)
Track 12 accurately ripped (confidence 100) [35144377] (AR v2)
Track 13 accurately ripped (confidence 100) [D03B821A] (AR v2)
Track 14 accurately ripped (confidence 96) [CE22999E] (AR v2)
Track 15 accurately ripped (confidence 95) [AA627380] (AR v2)
Track 16 accurately ripped (confidence 95) [41C10626] (AR v2)
Track 17 accurately ripped (confidence 94) [25272664] (AR v2)
Track 18 accurately ripped (confidence 95) [34525BE3] (AR v2)
Track 19 accurately ripped (confidence 95) [1B9B6869] (AR v2)
Track 20 accurately ripped (confidence 96) [EA23D85A] (AR v2)
Track 21 accurately ripped (confidence 95) [7F6B8D22] (AR v2)
Track 22 accurately ripped (confidence 94) [9FE4A9DE] (AR v2)

All tracks accurately ripped

End of status report

==== Log checksum AA9D659F905D756E2F5D0D1EA2D57783775E2AA95D079FB56035E70CB440BAEF ====

REM DATE 1969
REM DISCID 3A100116
REM COMMENT “ExactAudioCopy v1.0b3”
PERFORMER “The Moody Blues”
TITLE “On the Threshold of a Dream”
FILE “The Moody Blues – On the Threshold of a Dream.flac” WAVE
TRACK 01 AUDIO
TITLE “In the Beginning”
PERFORMER “The Moody Blues”
INDEX 01 00:00:00
TRACK 02 AUDIO
TITLE “Lovely to See You”
PERFORMER “The Moody Blues”
INDEX 01 02:08:63
TRACK 03 AUDIO
TITLE “Dear Diary”
PERFORMER “The Moody Blues”
INDEX 01 04:43:17
TRACK 04 AUDIO
TITLE “Send Me No Wine”
PERFORMER “The Moody Blues”
INDEX 01 08:39:69
TRACK 05 AUDIO
TITLE “To Share Our Love”
PERFORMER “The Moody Blues”
INDEX 01 11:00:03
TRACK 06 AUDIO
TITLE “So Deep Within You”
PERFORMER “The Moody Blues”
INDEX 01 13:54:51
TRACK 07 AUDIO
TITLE “Never Comes the Day”
PERFORMER “The Moody Blues”
INDEX 01 17:02:07
TRACK 08 AUDIO
TITLE “Lazy Day”
PERFORMER “The Moody Blues”
INDEX 01 21:45:59
TRACK 09 AUDIO
TITLE “Are You Sitting Comfortably”
PERFORMER “The Moody Blues”
INDEX 01 24:29:30
TRACK 10 AUDIO
TITLE “The Dream”
PERFORMER “The Moody Blues”
INDEX 01 27:59:07
TRACK 11 AUDIO
TITLE “Have You Heard, Part 1”
PERFORMER “The Moody Blues”
INDEX 01 28:57:40
TRACK 12 AUDIO
TITLE “The Voyage”
PERFORMER “The Moody Blues”
INDEX 01 30:25:67
TRACK 13 AUDIO
TITLE “Have You Heard, Part 2”
PERFORMER “The Moody Blues”
INDEX 01 34:36:69
TRACK 14 AUDIO
TITLE “In the Beginning (full version)”
PERFORMER “The Moody Blues”
INDEX 01 37:08:21
TRACK 15 AUDIO
TITLE “So Deep Within You (extended version)”
PERFORMER “The Moody Blues”
INDEX 01 40:36:49
TRACK 16 AUDIO
TITLE “Dear Diary (alternate vocal mix)”
PERFORMER “The Moody Blues”
INDEX 01 44:06:45
TRACK 17 AUDIO
TITLE “Have You Heard (original take)”
PERFORMER “The Moody Blues”
INDEX 01 48:11:55
TRACK 18 AUDIO
TITLE “The Voyage (original take)”
PERFORMER “The Moody Blues”
INDEX 01 52:04:29
TRACK 19 AUDIO
TITLE “Lovely to See You (live)”
PERFORMER “The Moody Blues”
INDEX 01 56:24:09
TRACK 20 AUDIO
TITLE “Send Me No Wine (live)”
PERFORMER “The Moody Blues”
INDEX 01 58:50:13
TRACK 21 AUDIO
TITLE “So Deep Within You (live)”
PERFORMER “The Moody Blues”
INDEX 01 61:30:39
TRACK 22 AUDIO
TITLE “Are You Sitting Comfortably (live)”
PERFORMER “The Moody Blues”
INDEX 01 64:39:00


Spread the Download

Leave a Reply

Your email address will not be published. Required fields are marked *

Enter the text from the image below
 

This site uses Akismet to reduce spam. Learn how your comment data is processed.