The Moody Blues – Octave (Remastered)




[Total: 0    Average: 0/5]

Artist: The Moody Blues
Year: 1978/2008
Genre: Rock
Notes: Discogs
Add. Notes: Remastered
Cover incl.: Yes
Encoder: FLAC
Bitrate: ~800 kBit/s (44.1 kHz/16 Bit/s)
Log & Cue incl.: Yes
Size: 637 MB
Password: “slam” (without ” “)


All Downloads/Hosters are compatible

Download 1
KatFile.com
Turbobit.net
FileFactory.com
Rapidgator.net
Download 2
KatFile.com
Turbobit.net
FileFactory.com
Rapidgator.net

Tracklist:

1 - Steppin' In A Slide Zone - 5:29
2 - Under Moonshine - 5:00
3 - Had To Fall In Love - 3:42
4 - I'll Be Level With You - 3:48
5 - Driftwood - 5:03
6 - Top Rank Suite - 3:42
7 - I'm Your Man - 4:21
8 - Survival - 4:09
9 - One Step Into The Light - 4:29
10 - The Day We Meet Again - 6:19

Bonus Tracks
11 - Steppin' In A Slide Zone (Live) - 
4:57
12 - I'm Your Man (Live) - 4:51
13 - Top Rank Suite (Live) - 4:28
14 - Driftwood (Live) - 5:02
15 - The Day We Meet Again (Live) - 
7:16

EAC-Log, CUE-Sheed & NFO:

Click to open spoiler
Exact Audio Copy V1.0 beta 3 from 29. August 2011

EAC extraction logfile from 15. October 2017, 19:29

The Moody Blues / Octave

Used drive : PLEXTOR DVDR PX-L890SA Adapter: 3 ID: 1

Read mode : Secure
Utilize accurate stream : Yes
Defeat audio cache : Yes
Make use of C2 pointers : No

Read offset correction : 6
Overread into Lead-In and Lead-Out : No
Fill up missing offset samples with silence : Yes
Delete leading and trailing silent blocks : No
Null samples used in CRC calculations : Yes
Used interface : Native Win32 interface for Win NT & 2000

Used output format : User Defined Encoder
Selected bitrate : 768 kBit/s
Quality : High
Add ID3 tag : No
Command line compressor : C:\Program Files (x86)\Exact Audio Copy\Flac\flac.exe
Additional command line options : -V -8 -T “Date=%year%” -T “Genre=%genre%” %source%

TOC of the extracted CD

Track | Start | Length | Start sector | End sector
———————————————————
1 | 0:00.00 | 5:29.67 | 0 | 24741
2 | 5:29.67 | 5:00.34 | 24742 | 47275
3 | 10:30.26 | 3:42.19 | 47276 | 63944
4 | 14:12.45 | 3:48.16 | 63945 | 81060
5 | 18:00.61 | 5:03.13 | 81061 | 103798
6 | 23:03.74 | 3:42.67 | 103799 | 120515
7 | 26:46.66 | 4:21.20 | 120516 | 140110
8 | 31:08.11 | 4:09.41 | 140111 | 158826
9 | 35:17.52 | 4:29.21 | 158827 | 179022
10 | 39:46.73 | 6:24.13 | 179023 | 207835
11 | 46:11.11 | 4:59.24 | 207836 | 230284
12 | 51:10.35 | 4:53.47 | 230285 | 252306
13 | 56:04.07 | 4:29.07 | 252307 | 272488
14 | 60:33.14 | 5:04.13 | 272489 | 295301
15 | 65:37.27 | 7:16.54 | 295302 | 328055

Range status and errors

Selected range

Filename H:\MUSIC\1978. The Moody Blues – Octave (Threshold 531 279-0, EU)\The Moody Blues – Octave.wav

Peak level 96.6 %
Extraction speed 10.2 X
Range quality 99.9 %
Test CRC F96BB146
Copy CRC F96BB146
Copy OK

No errors occurred

AccurateRip summary

Track 1 accurately ripped (confidence 40) [2D3061B4] (AR v2)
Track 2 accurately ripped (confidence 39) [4A8F8D62] (AR v2)
Track 3 accurately ripped (confidence 40) [7C056331] (AR v2)
Track 4 accurately ripped (confidence 39) [C07BAEC6] (AR v2)
Track 5 accurately ripped (confidence 40) [DACCBE3F] (AR v2)
Track 6 accurately ripped (confidence 39) [F817F19B] (AR v2)
Track 7 accurately ripped (confidence 38) [3006F536] (AR v2)
Track 8 accurately ripped (confidence 39) [12FC84E9] (AR v2)
Track 9 accurately ripped (confidence 39) [D3498CA0] (AR v2)
Track 10 accurately ripped (confidence 39) [B3C0821D] (AR v2)
Track 11 accurately ripped (confidence 36) [6856309A] (AR v2)
Track 12 accurately ripped (confidence 37) [FF291622] (AR v2)
Track 13 accurately ripped (confidence 36) [7F2C4EFE] (AR v2)
Track 14 accurately ripped (confidence 37) [95CC419D] (AR v2)
Track 15 accurately ripped (confidence 36) [05621D56] (AR v2)

All tracks accurately ripped

End of status report

==== Log checksum BA5C5096F2F3AAD546A48BB50FB008BC0FC76EC2F5CF217742AEA98911348225 ====

REM GENRE “Progressive Rock”
REM DATE 1978
REM DISCID DC11160F
REM COMMENT “ExactAudioCopy v1.0b3”
PERFORMER “The Moody Blues”
TITLE “Octave”
FILE “The Moody Blues – Octave.flac” WAVE
TRACK 01 AUDIO
TITLE “Steppin’ In A Slide Zone”
PERFORMER “The Moody Blues”
INDEX 01 00:00:00
TRACK 02 AUDIO
TITLE “Under Moonshine”
PERFORMER “The Moody Blues”
INDEX 01 05:29:67
TRACK 03 AUDIO
TITLE “Had To Fall In Love”
PERFORMER “The Moody Blues”
INDEX 01 10:30:26
TRACK 04 AUDIO
TITLE “I’ll Be Level With You”
PERFORMER “The Moody Blues”
INDEX 01 14:12:45
TRACK 05 AUDIO
TITLE “Driftwood”
PERFORMER “The Moody Blues”
INDEX 01 18:00:61
TRACK 06 AUDIO
TITLE “Top Rank Suite”
PERFORMER “The Moody Blues”
INDEX 01 23:03:74
TRACK 07 AUDIO
TITLE “I’m Your Man”
PERFORMER “The Moody Blues”
INDEX 01 26:46:66
TRACK 08 AUDIO
TITLE “Survival”
PERFORMER “The Moody Blues”
INDEX 01 31:08:11
TRACK 09 AUDIO
TITLE “One Step Into The Light”
PERFORMER “The Moody Blues”
INDEX 01 35:17:52
TRACK 10 AUDIO
TITLE “The Day We Meet Again”
PERFORMER “The Moody Blues”
INDEX 01 39:46:73
TRACK 11 AUDIO
TITLE “Steppin’ In A Slide Zone (Live 1979) [Bonus]”
PERFORMER “The Moody Blues”
INDEX 00 46:06:33
INDEX 01 46:11:11
TRACK 12 AUDIO
TITLE “I’m Your Man (Live 1979) [Bonus]”
PERFORMER “The Moody Blues”
INDEX 00 51:08:57
INDEX 01 51:10:35
TRACK 13 AUDIO
TITLE “Top Rank Suite (Live 1979) [Bonus]”
PERFORMER “The Moody Blues”
INDEX 00 56:02:28
INDEX 01 56:04:07
TRACK 14 AUDIO
TITLE “Driftwood (Live 1979) [Bonus]”
PERFORMER “The Moody Blues”
INDEX 00 60:32:32
INDEX 01 60:33:14
TRACK 15 AUDIO
TITLE “The Day We Meet Again (Live 1978) [Bonus]”
PERFORMER “The Moody Blues”
INDEX 00 65:35:48
INDEX 01 65:37:27


Spread the Download

Leave a Reply

Your email address will not be published. Required fields are marked *

Enter the text from the image below
 

This site uses Akismet to reduce spam. Learn how your comment data is processed.