The Moody Blues – In Search Of The Lost Chord (Remastered)




[Total: 0    Average: 0/5]

Artist: The Moody Blues
Year: 1968/2008
Genre: Rock
Notes: Discogs
Add. Notes: Remastered
Cover incl.: Yes
Encoder: FLAC
Bitrate: ~800 kBit/s (44.1 kHz/16 Bit/s)
Log & Cue incl.: Yes
Size: 594 MB
Password: “slam” (without ” “)


All Downloads/Hosters are compatible

Download 1
Share-online.biz
KatFile.com
Rapidgator.net
Mexa.sh
Download 2
Share-online.biz
KatFile.com
Rapidgator.net
Mexa.sh

Tracklist:

1 - Departure - 0:44
2 - Ride My See-Saw - 3:38
3 - Dr. Livingstone, I Presume - 2:58
4 - House Of Four Doors (Part 1) - 
4:12
5 - Legend Of A Mind - 6:36
6 - House Of Four Doors (Part 2) - 
1:47
7 - Voices In The Sky - 3:28
8 - The Best Way To Travel - 3:14
9 - Visions Of Paradise - 4:15
10 - The Actor - 4:39
11 - The Word - 0:49
12 - Om - 5:44
Bonus Tracks
13 - A Simple Game (Justin Hayward 
Vocal Mix) - 3:32
14 - The Best Way To Travel 
(Additional Vocal Mix) - 3:56
15 - Visions Of Paradise 
(Instrumental Version) - 4:30
16 - What Am I Doing Here? (Original 
Version) - 3:54
17 - The Word (Mellotron Mix) - 1:2
18 - Om (Extended Version) - 6:07
19 - Dr. Livingstone I Presume - 2:57
20 - Thinking Is The Best Way To 
Travel - 3:39
21 - A Simple Game - 3:41

EAC-Log, CUE-Sheed & NFO:

Click to open spoiler
Exact Audio Copy V1.0 beta 3 from 29. August 2011

EAC extraction logfile from 6. November 2017, 14:50

The Moody Blues / In Search Of The Lost Chord

Used drive : PLEXTOR DVDR PX-L890SA Adapter: 3 ID: 1

Read mode : Secure
Utilize accurate stream : Yes
Defeat audio cache : Yes
Make use of C2 pointers : No

Read offset correction : 6
Overread into Lead-In and Lead-Out : No
Fill up missing offset samples with silence : Yes
Delete leading and trailing silent blocks : No
Null samples used in CRC calculations : Yes
Used interface : Native Win32 interface for Win NT & 2000

Used output format : User Defined Encoder
Selected bitrate : 768 kBit/s
Quality : High
Add ID3 tag : No
Command line compressor : C:\Program Files (x86)\Exact Audio Copy\Flac\flac.exe
Additional command line options : -V -8 -T “Date=%year%” -T “Genre=%genre%” %source%

TOC of the extracted CD

Track | Start | Length | Start sector | End sector
———————————————————
1 | 0:00.00 | 0:45.09 | 0 | 3383
2 | 0:45.09 | 3:39.17 | 3384 | 19825
3 | 4:24.26 | 2:58.40 | 19826 | 33215
4 | 7:22.66 | 4:13.09 | 33216 | 52199
5 | 11:36.00 | 6:36.46 | 52200 | 81945
6 | 18:12.46 | 1:47.07 | 81946 | 89977
7 | 19:59.53 | 3:28.62 | 89978 | 105639
8 | 23:28.40 | 3:14.23 | 105640 | 120212
9 | 26:42.63 | 4:15.37 | 120213 | 139374
10 | 30:58.25 | 4:39.27 | 139375 | 160326
11 | 35:37.52 | 0:48.74 | 160327 | 164000
12 | 36:26.51 | 5:52.16 | 164001 | 190416
13 | 42:18.67 | 3:28.06 | 190417 | 206022
14 | 45:46.73 | 4:05.46 | 206023 | 224443
15 | 49:52.44 | 4:32.27 | 224444 | 244870
16 | 54:24.71 | 3:55.66 | 244871 | 262561
17 | 58:20.62 | 1:04.07 | 262562 | 267368
18 | 59:24.69 | 6:09.45 | 267369 | 295088
19 | 65:34.39 | 2:59.57 | 295089 | 308570
20 | 68:34.21 | 3:40.35 | 308571 | 325105
21 | 72:14.56 | 3:44.53 | 325106 | 341958

Range status and errors

Selected range

Filename H:\MUSIC\1968. The Moody Blues – In Search Of The Lost Chord (Deram 530 706-9, EU)\The Moody Blues – In Search Of The Lost Chord.wav

Peak level 98.8 %
Extraction speed 10.3 X
Range quality 100.0 %
Test CRC 669DA767
Copy CRC 669DA767
Copy OK

No errors occurred

AccurateRip summary

Track 1 accurately ripped (confidence 143) [A7065EA1] (AR v2)
Track 2 accurately ripped (confidence 143) [861B4C01] (AR v2)
Track 3 accurately ripped (confidence 143) [054E8EAE] (AR v2)
Track 4 accurately ripped (confidence 143) [B3767AA5] (AR v2)
Track 5 accurately ripped (confidence 143) [E6566FEC] (AR v2)
Track 6 accurately ripped (confidence 143) [9E79677F] (AR v2)
Track 7 accurately ripped (confidence 141) [AA9D0FE2] (AR v2)
Track 8 accurately ripped (confidence 142) [5ED1827B] (AR v2)
Track 9 accurately ripped (confidence 142) [59B4E203] (AR v2)
Track 10 accurately ripped (confidence 142) [A2FAE306] (AR v2)
Track 11 accurately ripped (confidence 142) [5E911FA4] (AR v2)
Track 12 accurately ripped (confidence 142) [C37FA239] (AR v2)
Track 13 accurately ripped (confidence 138) [58CA6965] (AR v2)
Track 14 accurately ripped (confidence 138) [314E3025] (AR v2)
Track 15 accurately ripped (confidence 136) [0C2DDD73] (AR v2)
Track 16 accurately ripped (confidence 135) [AD74D346] (AR v2)
Track 17 accurately ripped (confidence 137) [F5AAD46D] (AR v2)
Track 18 accurately ripped (confidence 135) [76D0E698] (AR v2)
Track 19 accurately ripped (confidence 135) [3B06C19C] (AR v2)
Track 20 accurately ripped (confidence 131) [295668C0] (AR v2)
Track 21 accurately ripped (confidence 131) [B07A0CD0] (AR v2)

All tracks accurately ripped

End of status report

==== Log checksum 41FF65267356C0F2D0DA94EDC944F9873D4C8FEE8A2745F95EE22B4F3DFE6986 ====

REM GENRE Rock
REM DATE 1968
REM DISCID 2B11CF15
REM COMMENT “ExactAudioCopy v1.0b3”
PERFORMER “The Moody Blues”
TITLE “In Search Of The Lost Chord”
FILE “The Moody Blues – In Search Of The Lost Chord.flac” WAVE
TRACK 01 AUDIO
TITLE “Departure”
PERFORMER “The Moody Blues”
INDEX 01 00:00:00
TRACK 02 AUDIO
TITLE “Ride My See-Saw”
PERFORMER “The Moody Blues”
INDEX 01 00:45:09
TRACK 03 AUDIO
TITLE “Dr Livingstone, I Presume”
PERFORMER “The Moody Blues”
INDEX 01 04:24:26
TRACK 04 AUDIO
TITLE “House Of Four Doors (Part 1)”
PERFORMER “The Moody Blues”
INDEX 01 07:22:66
TRACK 05 AUDIO
TITLE “Legend Of A Mind”
PERFORMER “The Moody Blues”
INDEX 01 11:36:00
TRACK 06 AUDIO
TITLE “House Of Four Doors (Part 2)”
PERFORMER “The Moody Blues”
INDEX 01 18:12:46
TRACK 07 AUDIO
TITLE “Voices In The Sky”
PERFORMER “The Moody Blues”
INDEX 01 19:59:53
TRACK 08 AUDIO
TITLE “The Best Way To Travel”
PERFORMER “The Moody Blues”
INDEX 01 23:28:40
TRACK 09 AUDIO
TITLE “Visions Of Paradise”
PERFORMER “The Moody Blues”
INDEX 01 26:42:63
TRACK 10 AUDIO
TITLE “The Actor”
PERFORMER “The Moody Blues”
INDEX 01 30:58:25
TRACK 11 AUDIO
TITLE “The Word”
PERFORMER “The Moody Blues”
INDEX 01 35:37:52
TRACK 12 AUDIO
TITLE “Om”
PERFORMER “The Moody Blues”
INDEX 01 36:26:51
TRACK 13 AUDIO
TITLE “A Simple Game (Justin Hayward vocal mix)”
PERFORMER “The Moody Blues”
INDEX 00 42:14:35
INDEX 01 42:18:67
TRACK 14 AUDIO
TITLE “The Best Way To Travel (additional vocal mix)”
PERFORMER “The Moody Blues”
INDEX 00 45:45:03
INDEX 01 45:46:73
TRACK 15 AUDIO
TITLE “Visions of Paradise (instrumental version)”
PERFORMER “The Moody Blues”
INDEX 00 49:49:54
INDEX 01 49:52:44
TRACK 16 AUDIO
TITLE “What Am I Doing Here? (original version)”
PERFORMER “The Moody Blues”
INDEX 00 54:22:02
INDEX 01 54:24:71
TRACK 17 AUDIO
TITLE “The Word (mellotron mix)”
PERFORMER “The Moody Blues”
INDEX 00 58:17:73
INDEX 01 58:20:62
TRACK 18 AUDIO
TITLE “Om (extended version)”
PERFORMER “The Moody Blues”
INDEX 00 59:22:07
INDEX 01 59:24:69
TRACK 19 AUDIO
TITLE “Dr Livingstone, I Presume (BBC session)”
PERFORMER “The Moody Blues”
INDEX 00 65:31:68
INDEX 01 65:34:39
TRACK 20 AUDIO
TITLE “The Best Way To Travel (BBC session)”
PERFORMER “The Moody Blues”
INDEX 00 68:31:38
INDEX 01 68:34:21
TRACK 21 AUDIO
TITLE “A Simple Game (1968 single B-side)”
PERFORMER “The Moody Blues”
INDEX 00 72:12:08
INDEX 01 72:14:56


Spread the Download

Leave a Reply

Your email address will not be published. Required fields are marked *

Enter the text from the image below
 

This site uses Akismet to reduce spam. Learn how your comment data is processed.