The Moody Blues – Every Good Boy Deserves Favour (Remastered)




Artist: The Moody Blues
Year: 1971/2008
Genre: Rock
Notes: Discogs
Add. Notes: Remastered
Cover incl.: Yes
Encoder: FLAC
Bitrate: ~800 kBit/s (44.1 kHz/16 Bit/s)
Log & Cue incl.: Yes
Size: 465,8 MB
Password: “slam” (without ” “)


All Downloads/Hosters are compatible

Download 1
KatFile.com
Turbobit.net
Rapidgator.net
Download 2
KatFile.com
Turbobit.net
Rapidgator.net

Tracklist:

1 - Procession - 4:40
2 - The Story In Your Eyes - 2:56
3 - Our Guessing Game - 3:34
4 - Emily's Song - 3:42
5 - After You Came - 4:36
6 - One More Time To Live - 5:41
7 - Nice To Be Here - 4:23
8 - You Can Never Go Home - 4:14
9 - My Song - 6:19
Bonus Tracks
10 - The Story In Your Eyes (Original Version) - 3:30
11 - The Dreamer - 3:42

EAC-Log, CUE-Sheed & NFO:

Click to open spoiler
Exact Audio Copy V1.0 beta 3 from 29. August 2011

EAC extraction logfile from 15. October 2017, 18:58

The Moody Blues / Every Good Boy Deserves Favour

Used drive : PLEXTOR DVDR PX-L890SA Adapter: 3 ID: 1

Read mode : Secure
Utilize accurate stream : Yes
Defeat audio cache : Yes
Make use of C2 pointers : No

Read offset correction : 6
Overread into Lead-In and Lead-Out : No
Fill up missing offset samples with silence : Yes
Delete leading and trailing silent blocks : No
Null samples used in CRC calculations : Yes
Used interface : Native Win32 interface for Win NT & 2000

Used output format : User Defined Encoder
Selected bitrate : 768 kBit/s
Quality : High
Add ID3 tag : No
Command line compressor : C:\Program Files (x86)\Exact Audio Copy\Flac\flac.exe
Additional command line options : -V -8 -T “Date=%year%” -T “Genre=%genre%” %source%

TOC of the extracted CD

Track | Start | Length | Start sector | End sector
———————————————————
1 | 0:00.00 | 4:40.48 | 0 | 21047
2 | 4:40.48 | 2:56.43 | 21048 | 34290
3 | 7:37.16 | 3:34.12 | 34291 | 50352
4 | 11:11.28 | 3:42.15 | 50353 | 67017
5 | 14:53.43 | 4:38.02 | 67018 | 87869
6 | 19:31.45 | 5:41.62 | 87870 | 113506
7 | 25:13.32 | 4:23.66 | 113507 | 133297
8 | 29:37.23 | 4:14.68 | 133298 | 152415
9 | 33:52.16 | 6:24.52 | 152416 | 181267
10 | 40:16.68 | 3:33.52 | 181268 | 197294
11 | 43:50.45 | 3:42.35 | 197295 | 213979

Range status and errors

Selected range

Filename H:\MUSIC\1971. The Moody Blues – Every Good Boy Deserves Favour (Threshold 530 662-7, EU)\The Moody Blues – Every Good Boy Deserves Favour.wav

Peak level 98.6 %
Extraction speed 8.3 X
Range quality 100.0 %
Test CRC 36CDD0FC
Copy CRC 36CDD0FC
Copy OK

No errors occurred

AccurateRip summary

Track 1 accurately ripped (confidence 112) [E4ADBC4C] (AR v2)
Track 2 accurately ripped (confidence 112) [BD954E68] (AR v2)
Track 3 accurately ripped (confidence 113) [217E4667] (AR v2)
Track 4 accurately ripped (confidence 112) [245A0A8D] (AR v2)
Track 5 accurately ripped (confidence 111) [2DA561B3] (AR v2)
Track 6 accurately ripped (confidence 112) [6C476518] (AR v2)
Track 7 accurately ripped (confidence 112) [49C2F146] (AR v2)
Track 8 accurately ripped (confidence 113) [6F185B84] (AR v2)
Track 9 accurately ripped (confidence 112) [F1ACD4A2] (AR v2)
Track 10 accurately ripped (confidence 109) [BBD42870] (AR v2)
Track 11 accurately ripped (confidence 109) [C68C1999] (AR v2)

All tracks accurately ripped

End of status report

==== Log checksum 6121AB354007ACB4518FB195094944857056803591EEDB7432BE5267E4EEDFD4 ====

REM GENRE “Progressive Rock”
REM DATE 2008
REM DISCID 9B0B250B
REM COMMENT “ExactAudioCopy v1.0b3”
PERFORMER “The Moody Blues”
TITLE “Every Good Boy Deserves Favour”
FILE “The Moody Blues – Every Good Boy Deserves Favour.flac” WAVE
TRACK 01 AUDIO
TITLE “Procession”
PERFORMER “The Moody Blues”
INDEX 01 00:00:00
TRACK 02 AUDIO
TITLE “The Story In Your Eyes”
PERFORMER “The Moody Blues”
INDEX 01 04:40:48
TRACK 03 AUDIO
TITLE “Our Guessing Game”
PERFORMER “The Moody Blues”
INDEX 01 07:37:16
TRACK 04 AUDIO
TITLE “Emily’s Song”
PERFORMER “The Moody Blues”
INDEX 01 11:11:28
TRACK 05 AUDIO
TITLE “After You Came”
PERFORMER “The Moody Blues”
INDEX 01 14:53:43
TRACK 06 AUDIO
TITLE “One More Time To Live”
PERFORMER “The Moody Blues”
INDEX 01 19:31:45
TRACK 07 AUDIO
TITLE “Nice To Be Here”
PERFORMER “The Moody Blues”
INDEX 01 25:13:32
TRACK 08 AUDIO
TITLE “You Can Never Go Home”
PERFORMER “The Moody Blues”
INDEX 01 29:37:23
TRACK 09 AUDIO
TITLE “My Song”
PERFORMER “The Moody Blues”
INDEX 01 33:52:16
TRACK 10 AUDIO
TITLE “The Story In Your Eyes (Original Version)”
PERFORMER “The Moody Blues”
INDEX 01 40:16:68
TRACK 11 AUDIO
TITLE “The Dreamer”
PERFORMER “The Moody Blues”
INDEX 01 43:50:45


Leave a Reply

Your email address will not be published. Required fields are marked *

This site uses Akismet to reduce spam. Learn how your comment data is processed.