The Moody Blues – December




No Cover available

Artist: The Moody Blues
Year: 2003
Genre: Rock
Notes: Discogs
Add. Notes:
Watch Songs on: YouTube
Cover incl.: Yes
Encoder: FLAC
Bitrate: ~900 kBit/s (44.1 kHz/16 Bit/s)
Log & Cue incl.: Yes/Yes
Size: 440,7 MB
Password: “slam” (without ” “)


All Downloads/Hosters are compatible

Download 1
KatFile.com
Turbobit.net
FileFactory.com
Rapidgator.net
Download 2
KatFile.com
Turbobit.net
FileFactory.com
Rapidgator.net

Tracklist:

1 Don't Need A Reindeer 
2 December Snow 
3 In The Quiet Of Christmas Morning (Bach 147) 
4 On This Christmas Day 
5 Happy Xmas (War Is Over) 
6 A Winter's Tale 
7 The Spirit Of Christmas 
8 Yes I Believe 
9 When A Child Is Born 
10 White Christmas 
11 In The Bleak Midwinter

EAC-Log, CUE-Sheed & NFO:

Click to open spoiler
Exact Audio Copy V1.0 beta 3 from 29. August 2011

EAC extraction logfile from 5. October 2017, 20:10

The Moody Blues / December

Used drive : PLEXTOR DVDR PX-L890SA Adapter: 3 ID: 1

Read mode : Secure
Utilize accurate stream : Yes
Defeat audio cache : Yes
Make use of C2 pointers : No

Read offset correction : 6
Overread into Lead-In and Lead-Out : No
Fill up missing offset samples with silence : Yes
Delete leading and trailing silent blocks : No
Null samples used in CRC calculations : Yes
Used interface : Native Win32 interface for Win NT & 2000

Used output format : User Defined Encoder
Selected bitrate : 768 kBit/s
Quality : High
Add ID3 tag : No
Command line compressor : C:\Program Files (x86)\Exact Audio Copy\Flac\flac.exe
Additional command line options : -V -8 -T “Date=%year%” -T “Genre=%genre%” %source%

TOC of the extracted CD

Track | Start | Length | Start sector | End sector
———————————————————
1 | 0:00.00 | 4:01.00 | 0 | 18074
2 | 4:01.00 | 5:11.35 | 18075 | 41434
3 | 9:12.35 | 2:51.10 | 41435 | 54269
4 | 12:03.45 | 3:40.14 | 54270 | 70783
5 | 15:43.59 | 2:37.23 | 70784 | 82581
6 | 18:21.07 | 4:28.43 | 82582 | 102724
7 | 22:49.50 | 4:53.07 | 102725 | 124706
8 | 27:42.57 | 4:21.29 | 124707 | 144310
9 | 32:04.11 | 3:34.46 | 144311 | 160406
10 | 35:38.57 | 3:08.59 | 160407 | 174565
11 | 38:47.41 | 3:27.08 | 174566 | 190098

Range status and errors

Selected range

Filename H:\MUSIC\2003. The Moody Blues – December (Universal 9811955, UK)\The Moody Blues – December.wav

Peak level 100.0 %
Extraction speed 8.0 X
Range quality 100.0 %
Test CRC 3024A540
Copy CRC 3024A540
Copy OK

No errors occurred

AccurateRip summary

Track 1 accurately ripped (confidence 24) [925B6A16] (AR v2)
Track 2 accurately ripped (confidence 24) [9F4F8692] (AR v2)
Track 3 accurately ripped (confidence 24) [DB99395B] (AR v2)
Track 4 accurately ripped (confidence 24) [64A4BF8A] (AR v2)
Track 5 accurately ripped (confidence 24) [30B26FEF] (AR v2)
Track 6 accurately ripped (confidence 24) [84D91FBF] (AR v2)
Track 7 accurately ripped (confidence 24) [A973D0E6] (AR v2)
Track 8 accurately ripped (confidence 24) [92BE57CC] (AR v2)
Track 9 accurately ripped (confidence 24) [EE7E65F4] (AR v2)
Track 10 accurately ripped (confidence 24) [BD0BDAA4] (AR v2)
Track 11 accurately ripped (confidence 24) [446062A4] (AR v2)

All tracks accurately ripped

End of status report

==== Log checksum CF0D946F3D507C752CFB0989B694785886F2E88CAC50112CF231F746B3162989 ====

REM GENRE “Progressive Rock”
REM DATE 2003
REM DISCID 8409E60B
REM COMMENT “ExactAudioCopy v1.0b3”
PERFORMER “The Moody Blues”
TITLE “December”
FILE “The Moody Blues – December.flac” WAVE
TRACK 01 AUDIO
TITLE “Don’t Need A Reindeer”
PERFORMER “The Moody Blues”
INDEX 01 00:00:00
TRACK 02 AUDIO
TITLE “December Snow”
PERFORMER “The Moody Blues”
INDEX 00 03:59:70
INDEX 01 04:01:00
TRACK 03 AUDIO
TITLE “In The Quiet Of Christmas Morning (Bach 147)”
PERFORMER “The Moody Blues”
INDEX 01 09:12:35
TRACK 04 AUDIO
TITLE “On This Christmas Day”
PERFORMER “The Moody Blues”
INDEX 01 12:03:45
TRACK 05 AUDIO
TITLE “Happy Christmas (War Is Over)”
PERFORMER “The Moody Blues”
INDEX 01 15:43:59
TRACK 06 AUDIO
TITLE “A Winters Tale”
PERFORMER “The Moody Blues”
INDEX 00 18:20:46
INDEX 01 18:21:07
TRACK 07 AUDIO
TITLE “The Spirit Of Christmas”
PERFORMER “The Moody Blues”
INDEX 00 22:49:16
INDEX 01 22:49:50
TRACK 08 AUDIO
TITLE “Yes I Believe”
PERFORMER “The Moody Blues”
INDEX 01 27:42:57
TRACK 09 AUDIO
TITLE “When A Child Is Born”
PERFORMER “The Moody Blues”
INDEX 01 32:04:11
TRACK 10 AUDIO
TITLE “White Christmas”
PERFORMER “The Moody Blues”
INDEX 01 35:38:57
TRACK 11 AUDIO
TITLE “In The Bleak Midwinter”
PERFORMER “The Moody Blues”
INDEX 01 38:47:41


Leave a Reply

Your email address will not be published. Required fields are marked *

Enter the text from the image below
 

This site uses Akismet to reduce spam. Learn how your comment data is processed.