The Moody Blues – Days of Future Passed (Remastered)




Artist: The Moody Blues
Year: 1967/2008
Genre: Rock
Notes: Discogs
Add. Notes: Remastered
Cover incl.: Yes
Encoder: FLAC
Bitrate: ~700 kBit/s (44.1 kHz/16 Bit/s)
Log & Cue incl.: Yes
Size: 532,5 MB
Password: “slam” (without ” “)


All Downloads/Hosters are compatible

Download 1
KatFile.com
Turbobit.net
FileFactory.com
Rapidgator.net
Download 2
KatFile.com
Turbobit.net
FileFactory.com
Rapidgator.net

Tracklist:

1 The Day Begins 5:51
2 Dawn: Dawn Is A Feeling 3:49
3 The Morning: Another Morning 3:48
4 Lunch Break: Peak Hour 5:33
The Afternoon 8:23
5a Forever Afternoon (Tuesday?) 
5b (Evening) Time To Get Away 
Evening 6:40
6a The Sun Set 
6b Twilight Time 
7 The Night: Nights In White Satin 7:30

Bonus Tracks
BBC RADIO SESSION 
8 Don't Let Me Be Misunderstood 2:25
1967 MONO SINGLE MASTERS 
9 Fly Me High 2:54
10 I Really Haven't Got The Time 3:07
11 Love And Beauty 2:24
12 Leave This Man Alone 2:59
13 Cities 2:23
ALTERNATE VERSIONS & OUT-TAKES 
14 Tuesday Afternoon (Alternate Mix) 4:20
15 Dawn Is A Feeling (Alternate Version) 2:19
16 The Sun Set (Alternate Version Without Orchestra) 
2:49
17 Twilight Time (Alternate Vocal Mix) 2:27

EAC-Log, CUE-Sheed & NFO:

Click to open spoiler
Exact Audio Copy V1.0 beta 3 from 29. August 2011

EAC extraction logfile from 15. October 2017, 16:34

The Moody Blues / Days Of Future Passed

Used drive : PLEXTOR DVDR PX-L890SA Adapter: 3 ID: 1

Read mode : Secure
Utilize accurate stream : Yes
Defeat audio cache : Yes
Make use of C2 pointers : No

Read offset correction : 6
Overread into Lead-In and Lead-Out : No
Fill up missing offset samples with silence : Yes
Delete leading and trailing silent blocks : No
Null samples used in CRC calculations : Yes
Used interface : Native Win32 interface for Win NT & 2000

Used output format : User Defined Encoder
Selected bitrate : 768 kBit/s
Quality : High
Add ID3 tag : No
Command line compressor : C:\Program Files (x86)\Exact Audio Copy\Flac\flac.exe
Additional command line options : -V -8 -T “Date=%year%” -T “Genre=%genre%” %source%

TOC of the extracted CD

Track | Start | Length | Start sector | End sector
———————————————————
1 | 0:00.00 | 5:51.66 | 0 | 26390
2 | 5:51.66 | 3:49.10 | 26391 | 43575
3 | 9:41.01 | 3:56.22 | 43576 | 61297
4 | 13:37.23 | 5:29.67 | 61298 | 86039
5 | 19:07.15 | 8:23.41 | 86040 | 123805
6 | 27:30.56 | 6:40.42 | 123806 | 153847
7 | 34:11.23 | 7:29.37 | 153848 | 187559
8 | 41:40.60 | 2:24.11 | 187560 | 198370
9 | 44:04.71 | 2:56.20 | 198371 | 211590
10 | 47:01.16 | 3:09.50 | 211591 | 225815
11 | 50:10.66 | 2:26.17 | 225816 | 236782
12 | 52:37.08 | 3:01.30 | 236783 | 250387
13 | 55:38.38 | 2:26.02 | 250388 | 261339
14 | 58:04.40 | 4:20.66 | 261340 | 280905
15 | 62:25.31 | 2:20.04 | 280906 | 291409
16 | 64:45.35 | 2:50.21 | 291410 | 304180
17 | 67:35.56 | 2:28.02 | 304181 | 315282

Range status and errors

Selected range

Filename H:\MUSIC\1967. The Moody Blues – Days of Future Passed (Deram 530 663-1, EU)\The Moody Blues – Days Of Future Passed.wav

Peak level 98.8 %
Extraction speed 10.1 X
Range quality 99.9 %
Test CRC 4855AE8D
Copy CRC 4855AE8D
Copy OK

No errors occurred

AccurateRip summary

Track 1 accurately ripped (confidence 200) [781F5A37] (AR v2)
Track 2 accurately ripped (confidence 200) [1B61B90F] (AR v2)
Track 3 accurately ripped (confidence 200) [7B5CD428] (AR v2)
Track 4 accurately ripped (confidence 200) [0C458797] (AR v2)
Track 5 accurately ripped (confidence 200) [47CCDDEE] (AR v2)
Track 6 accurately ripped (confidence 200) [AB881D62] (AR v2)
Track 7 accurately ripped (confidence 200) [21E6349C] (AR v2)
Track 8 accurately ripped (confidence 200) [76C3EB95] (AR v2)
Track 9 accurately ripped (confidence 200) [95C81AF9] (AR v2)
Track 10 accurately ripped (confidence 200) [CD7EB834] (AR v2)
Track 11 accurately ripped (confidence 200) [2F442E28] (AR v2)
Track 12 accurately ripped (confidence 200) [57D90960] (AR v2)
Track 13 accurately ripped (confidence 200) [C525643F] (AR v2)
Track 14 accurately ripped (confidence 200) [29A4EC2D] (AR v2)
Track 15 accurately ripped (confidence 200) [47FF41A1] (AR v2)
Track 16 accurately ripped (confidence 200) [926FBA93] (AR v2)
Track 17 accurately ripped (confidence 200) [0CA1D1EA] (AR v2)

All tracks accurately ripped

End of status report

==== Log checksum 2DD6DA71C2657A8EA49FFEFF174BA1581CA049055F5CCD279BFA1162D935932C ====

REM GENRE Rock
REM DATE 1967
REM DISCID F6106B11
REM COMMENT “ExactAudioCopy v1.0b3”
PERFORMER “The Moody Blues”
TITLE “Days Of Future Passed”
FILE “The Moody Blues – Days Of Future Passed.flac” WAVE
TRACK 01 AUDIO
TITLE “The Day Begins”
PERFORMER “The Moody Blues”
INDEX 01 00:00:00
TRACK 02 AUDIO
TITLE “Dawn: Dawn Is A Feeling”
PERFORMER “The Moody Blues”
INDEX 01 05:51:66
TRACK 03 AUDIO
TITLE “The Morning: Another Morning”
PERFORMER “The Moody Blues”
INDEX 01 09:41:01
TRACK 04 AUDIO
TITLE “Lunch Break: Peak Hour”
PERFORMER “The Moody Blues”
INDEX 01 13:37:23
TRACK 05 AUDIO
TITLE “The Afternoon: a) Forver Afternoon (Tuesday?) b) (Evening) Time To Get Away”
PERFORMER “The Moody Blues”
INDEX 01 19:07:15
TRACK 06 AUDIO
TITLE “Evening: a) The Sun Set b) Twilight Time”
PERFORMER “The Moody Blues”
INDEX 01 27:30:56
TRACK 07 AUDIO
TITLE “The Night: Nights In White Satin”
PERFORMER “The Moody Blues”
INDEX 01 34:11:23
TRACK 08 AUDIO
TITLE “(Bonus) Don’t Let Me Be Misunderstood (BBC Radio Session)”
PERFORMER “The Moody Blues”
INDEX 00 41:37:53
INDEX 01 41:40:60
TRACK 09 AUDIO
TITLE “(Bonus) Fly Me High (1967 Mono Single Masters)”
PERFORMER “The Moody Blues”
INDEX 00 44:02:44
INDEX 01 44:04:71
TRACK 10 AUDIO
TITLE “(Bonus) I Really Haven’t Got The Time (1967 Mono Single Masters)”
PERFORMER “The Moody Blues”
INDEX 00 46:58:62
INDEX 01 47:01:16
TRACK 11 AUDIO
TITLE “(Bonus) Love And Beauty (1967 Mono Single Masters)”
PERFORMER “The Moody Blues”
INDEX 00 50:08:30
INDEX 01 50:10:66
TRACK 12 AUDIO
TITLE “(Bonus) Leave This Man Alone (1967 Mono Single Masters)”
PERFORMER “The Moody Blues”
INDEX 00 52:34:40
INDEX 01 52:37:08
TRACK 13 AUDIO
TITLE “(Bonus) Cities (1967 Mono Single Masters)”
PERFORMER “The Moody Blues”
INDEX 00 55:35:65
INDEX 01 55:38:38
TRACK 14 AUDIO
TITLE “(Bonus) Tuesday Afternoon (Alternate Mix)”
PERFORMER “The Moody Blues”
INDEX 00 58:01:71
INDEX 01 58:04:40
TRACK 15 AUDIO
TITLE “(Bonus) Dawn Is A Feeling (Alternate Version)”
PERFORMER “The Moody Blues”
INDEX 00 62:24:16
INDEX 01 62:25:31
TRACK 16 AUDIO
TITLE “(Bonus) The Sun Set (Alternate Version Without Orchestra)”
PERFORMER “The Moody Blues”
INDEX 00 64:45:06
INDEX 01 64:45:35
TRACK 17 AUDIO
TITLE “(Bonus) Twilight Time (Alternate Vocal Mix)”
PERFORMER “The Moody Blues”
INDEX 00 67:34:40
INDEX 01 67:35:56


0

Publication author

offline 11 hours

Chaos

3
Comments: 3Publics: 3189Registration: 02-02-2019
Spread the Download

Leave a Reply

Your email address will not be published. Required fields are marked *

Enter the text from the image below
 

This site uses Akismet to reduce spam. Learn how your comment data is processed.