The Moody Blues – A Question of Balance (Remastered)




Artist: The Moody Blues
Year: 1970/2008
Genre: Rock
Notes: Discogs
Add. Notes: Remastered
Cover incl.: Yes
Encoder: FLAC
Bitrate: ~900 kBit/s (44.1 kHz/16 Bit/s)
Log & Cue incl.: Yes
Size: 615 MB
Password: “slam” (without ” “)


All Downloads/Hosters are compatible

Download 1
KatFile.com
Turbobit.net
Rapidgator.net
Download 2
KatFile.com
Turbobit.net
Rapidgator.net

Tracklist:

The Digitally Remastered Original 
Stereo Album
1 - Question - 5:44
2 - How Is It (We Are Here) - 2:45
3 - And The Tide Rushes In - 2:55
4 - Don't You Feel Small - 2:38
5 - Tortoise And The Hare - 3:19
6 - It's Up To You - 3:11
7 - Minstrel's Song - 4:27
8 - Dawning Is The Day - 4:21
9 - Melancholy Man - 5:45
10 - The Balance - 3:27

Bonus Tracks
11 - Mike's Number One - 3:36
12 - Question (Alternate Version) - 
6:08
13 - Minstrel's Song (Original Mix) - 
4:35
14 - It's Up To You (Original Mix) - 
3:19
15 - Don't You Feel Small (Original 
Mix) - 3:02
16 - Dawning Is The Day (Full 
Original Mix) - 2:26

EAC-Log, CUE-Sheed & NFO:

Click to open spoiler
Exact Audio Copy V1.0 beta 3 from 29. August 2011

EAC extraction logfile from 6. November 2017, 16:35

The Moody Blues / A Question of Balance

Used drive : PLEXTOR DVDR PX-L890SA Adapter: 3 ID: 1

Read mode : Secure
Utilize accurate stream : Yes
Defeat audio cache : Yes
Make use of C2 pointers : No

Read offset correction : 6
Overread into Lead-In and Lead-Out : No
Fill up missing offset samples with silence : Yes
Delete leading and trailing silent blocks : No
Null samples used in CRC calculations : Yes
Used interface : Native Win32 interface for Win NT & 2000

Used output format : User Defined Encoder
Selected bitrate : 768 kBit/s
Quality : High
Add ID3 tag : No
Command line compressor : C:\Program Files (x86)\Exact Audio Copy\Flac\flac.exe
Additional command line options : -V -8 -T “Date=%year%” -T “Genre=%genre%” %source%

TOC of the extracted CD

Track | Start | Length | Start sector | End sector
———————————————————
1 | 0:00.00 | 5:44.17 | 0 | 25816
2 | 5:44.17 | 2:45.12 | 25817 | 38203
3 | 8:29.29 | 2:56.04 | 38204 | 51407
4 | 11:25.33 | 2:38.70 | 51408 | 63327
5 | 14:04.28 | 3:19.50 | 63328 | 78302
6 | 17:24.03 | 3:11.58 | 78303 | 92685
7 | 20:35.61 | 4:27.56 | 92686 | 112766
8 | 25:03.42 | 4:21.39 | 112767 | 132380
9 | 29:25.06 | 5:45.26 | 132381 | 158281
10 | 35:10.32 | 3:33.29 | 158282 | 174285
11 | 38:43.61 | 3:36.51 | 174286 | 190536
12 | 42:20.37 | 6:08.47 | 190537 | 218183
13 | 48:29.09 | 4:37.24 | 218184 | 238982
14 | 53:06.33 | 3:22.61 | 238983 | 254193
15 | 56:29.19 | 3:03.39 | 254194 | 267957
16 | 59:32.58 | 4:38.51 | 267958 | 288858

Range status and errors

Selected range

Filename H:\MUSIC\1970. The Moody Blues – A Question of Balance (Threshold 530 662-6, EU)\The Moody Blues – A Question of Balance.wav

Peak level 98.6 %
Extraction speed 9.7 X
Range quality 100.0 %
Test CRC FE0488E6
Copy CRC FE0488E6
Copy OK

No errors occurred

AccurateRip summary

Track 1 accurately ripped (confidence 9) [99BFA63C] (AR v2)
Track 2 accurately ripped (confidence 9) [84939E5D] (AR v2)
Track 3 accurately ripped (confidence 9) [B29F4330] (AR v2)
Track 4 accurately ripped (confidence 9) [656A491B] (AR v2)
Track 5 accurately ripped (confidence 9) [54DD8F0D] (AR v2)
Track 6 accurately ripped (confidence 9) [FF96DE02] (AR v2)
Track 7 accurately ripped (confidence 8) [A03D1EA8] (AR v2)
Track 8 accurately ripped (confidence 9) [1E3B1362] (AR v2)
Track 9 accurately ripped (confidence 9) [AB77135E] (AR v2)
Track 10 accurately ripped (confidence 9) [3B882BB0] (AR v2)
Track 11 accurately ripped (confidence 9) [52A28438] (AR v2)
Track 12 accurately ripped (confidence 8) [04AD69B4] (AR v2)
Track 13 accurately ripped (confidence 8) [F7D74442] (AR v2)
Track 14 accurately ripped (confidence 8) [F548DB12] (AR v2)
Track 15 accurately ripped (confidence 9) [CF671487] (AR v2)
Track 16 accurately ripped (confidence 8) [370B5026] (AR v2)

All tracks accurately ripped

End of status report

==== Log checksum 53BAC512B9A710CC5489064E702DEA380E8FE830ABCFD44EB182584C9711DB50 ====

REM DATE 1970
REM DISCID D80F0B10
REM COMMENT “ExactAudioCopy v1.0b3”
PERFORMER “The Moody Blues”
TITLE “A Question of Balance”
FILE “The Moody Blues – A Question of Balance.flac” WAVE
TRACK 01 AUDIO
TITLE “Question”
PERFORMER “The Moody Blues”
INDEX 01 00:00:00
TRACK 02 AUDIO
TITLE “How Is It (We Are Here)”
PERFORMER “The Moody Blues”
INDEX 01 05:44:17
TRACK 03 AUDIO
TITLE “And the Tide Rushes In”
PERFORMER “The Moody Blues”
INDEX 01 08:29:29
TRACK 04 AUDIO
TITLE “Don?t You Feel Small”
PERFORMER “The Moody Blues”
INDEX 01 11:25:33
TRACK 05 AUDIO
TITLE “Tortoise and the Hare”
PERFORMER “The Moody Blues”
INDEX 01 14:04:28
TRACK 06 AUDIO
TITLE “It?s Up to You”
PERFORMER “The Moody Blues”
INDEX 01 17:24:03
TRACK 07 AUDIO
TITLE “Minstrel?s Song”
PERFORMER “The Moody Blues”
INDEX 01 20:35:61
TRACK 08 AUDIO
TITLE “Dawning Is the Day”
PERFORMER “The Moody Blues”
INDEX 01 25:03:42
TRACK 09 AUDIO
TITLE “Melancholy Man”
PERFORMER “The Moody Blues”
INDEX 01 29:25:06
TRACK 10 AUDIO
TITLE “The Balance”
PERFORMER “The Moody Blues”
INDEX 01 35:10:32
TRACK 11 AUDIO
TITLE “Mike?s Number One”
PERFORMER “The Moody Blues”
INDEX 01 38:43:61
TRACK 12 AUDIO
TITLE “Question (alternate version)”
PERFORMER “The Moody Blues”
INDEX 01 42:20:37
TRACK 13 AUDIO
TITLE “Minstrel?s Song (original mix)”
PERFORMER “The Moody Blues”
INDEX 01 48:29:09
TRACK 14 AUDIO
TITLE “It?s Up to You (original mix)”
PERFORMER “The Moody Blues”
INDEX 01 53:06:33
TRACK 15 AUDIO
TITLE “Don?t You Feel Small (original mix)”
PERFORMER “The Moody Blues”
INDEX 01 56:29:19
TRACK 16 AUDIO
TITLE “Dawning Is the Day (full original mix)”
PERFORMER “The Moody Blues”
INDEX 01 59:32:58


Leave a Reply

Your email address will not be published. Required fields are marked *

This site uses Akismet to reduce spam. Learn how your comment data is processed.